Правила форума

  • В этом разделе создание новых тем Запрещено.
  • Для создания новых тем пользуйтесь Корневым разделом DVD и HD фильмы.
Начать новую темуОтветить на тему  [ Сообщений: 2 ] 
Торрент файл
Размер: 6.25 GB • Зарегистрирован: 4 года 4 месяца • Статус: Проверено
Скачан: 31 раз • Желающих скачать: 0 • Поблагодарили: 9 раз
 Раздают: 0  |  0 KB/s  ]   Качают: 0  |  0 KB/s  ] 
 Полного источника не было 1 год 2 месяца 
Сообщения
 Добавлено: 2012-07-08 17:18
Top-releaser
Аватара пользователя
Стаж: 6 лет 7 месяцев
Сообщений: 2078
Спасибок: 3229
Лайков: 9
Поле битвы Земля / Battlefield Earth

Изображение


Год выпуска: 2000
Страна: США
Жанр: фантастический боевик
Продолжительность: 1:52:51
Перевод: Профессиональный (дублированный)

Режиссёр: Роджер Кристиан
В ролях: Джон Траволта, Барри Пеппер, Форест Уитакер, Ким Коутс, Сабина Карсенти, Майкл Бирн, Кристиан Тессиер, Ричард Тайсон, Шон Остин-Олсен
Описание: Человечество на грани полного исчезновения, немногие оставшиеся в живых прячутся по пещерам, считая, что на Землю спустились Демоны. Надеются они только на Богов, которые должны спуститься с Небес и спасти их. Демоны — это злые гиганты, представители высшей инопланетной цивилизации Сайкло, называющие людей "зверолюдьми", и использующие их в качестве рабов для добычи необходимых им природных ископаемых...

Фильм поставлен по одноименной книге писателя-фантаста Рона Хаббарда, основателя церкви Сайентологии.

Раздача группы: Изображение

Качество: DVD9
Формат: DVD Video
Видео кодек: MPEG2
Аудио кодек: AC3 (Dolby Digital)
Видео: PAL 16:9 (720x576) 5890 Кбит/сек
Аудио #1: Русский (Dolby AC3, 6 ch, 384 kbps) - двухголосый
Аудио #2: Русский (Dolby AC3, 6 ch, 384 kbps) - дубляж
Аудио #3: Английский (Dolby AC3, 6 ch, 384 kbps)
Субтитры: Русские

mediaInfo
Общее
Полное имя : Z:\WWW\TR-Downloads\Battlefield_Earth_dvd_9\VIDEO_TS\VTS_02_1.VOB
Формат : MPEG-PS
Размер файла : 1024 Мбайт
Продолжительность : 19 м.
Режим общего битрейта : Переменный
Общий поток : 7185 Кбит/сек

Видео
Идентификатор : 224 (0xE0)
Формат : MPEG Video
Версия формата : Version 2
Профиль формата : Main@Main
Параметр BVOP формата : Да
Параметр матрицы формата : По умолчанию
Продолжительность : 19 м.
Вид битрейта : Переменный
Битрейт : 5890 Кбит/сек
Ширина : 720 пикселей
Высота : 576 пикселей
Соотношение сторон : 2,40:1
Частота кадров : 25,000 кадров/сек
Стандарт вещания : PAL
Цветовое пространство : YUV
Субдискретизация насыщенности : 4:2:0
Битовая глубина : 8 бит
Метод сжатия : С потерями
Бит/(Пиксели*Кадры) : 0.568
Размер потока : 839 Мбайт (82%)
Основные цвета : BT.470-2 System B, BT.470-2 System G
Характеристики трансфера : BT.470-2 System B, BT.470-2 System G
Коэффициенты матрицы : BT.470-2 System B, BT.470-2 System G

Аудио #1
Идентификатор : 189 (0xBD)-128 (0x80)
Формат : AC-3
Формат/Информация : Audio Coding 3
Расширение режима : CM (complete main)
Параметр Endianness формата : Big
Режим смешивания : DVD-Video
Продолжительность : 19 м.
Вид битрейта : Постоянный
Битрейт : 384 Кбит/сек
Каналы : 6 каналов
Расположение каналов : Front: L C R, Side: L R, LFE
Частота : 48,0 КГц
Битовая глубина : 16 бит
Метод сжатия : С потерями
Задержка видео : 16 мс.
Размер потока : 54,7 Мбайт (5%)

Аудио #2
Идентификатор : 189 (0xBD)-129 (0x81)
Формат : AC-3
Формат/Информация : Audio Coding 3
Расширение режима : CM (complete main)
Параметр Endianness формата : Big
Режим смешивания : DVD-Video
Продолжительность : 19 м.
Вид битрейта : Постоянный
Битрейт : 384 Кбит/сек
Каналы : 6 каналов
Расположение каналов : Front: L C R, Side: L R, LFE
Частота : 48,0 КГц
Битовая глубина : 16 бит
Метод сжатия : С потерями
Задержка видео : 16 мс.
Размер потока : 54,7 Мбайт (5%)

Аудио #3
Идентификатор : 189 (0xBD)-130 (0x82)
Формат : AC-3
Формат/Информация : Audio Coding 3
Расширение режима : CM (complete main)
Параметр Endianness формата : Big
Режим смешивания : DVD-Video
Продолжительность : 19 м.
Вид битрейта : Постоянный
Битрейт : 384 Кбит/сек
Каналы : 6 каналов
Расположение каналов : Front: L C R, Side: L R, LFE
Частота : 48,0 КГц
Битовая глубина : 16 бит
Метод сжатия : С потерями
Задержка видео : 16 мс.
Размер потока : 54,7 Мбайт (5%)

Текст #1
Идентификатор : 189 (0xBD)-32 (0x20)
Формат : RLE
Формат/Информация : Run-length encoding
Режим смешивания : DVD-Video

Текст #2
Идентификатор : 189 (0xBD)-33 (0x21)
Формат : RLE
Формат/Информация : Run-length encoding
Режим смешивания : DVD-Video

Текст #3
Идентификатор : 189 (0xBD)-34 (0x22)
Формат : RLE
Формат/Информация : Run-length encoding
Режим смешивания : DVD-Video

Меню
Свернуть
Скриншоты
Изображение

Изображение

Изображение

Изображение
Свернуть
Не в сети
Профиль  
 Добавлено: 2012-08-01 18:28 (спустя 24 дня)
Стаж: 5 лет 7 месяцев
Сообщений: 14
Не знал, что Хаббард и путные книги пишет.
Не в сети
Профиль  
Начать новую темуОтветить на тему  [ Сообщений: 2 ] 
Вы не можете начинать темы
Вы не можете отвечать на сообщения
Вы не можете редактировать свои сообщения
Вы не можете удалять свои сообщения