Правила форума

  • В этом разделе создание новых тем Запрещено.
  • Для создания новых тем пользуйтесь Корневым разделом DVD и HD фильмы.
Начать новую темуОтветить на тему  [ Сообщений: 4 ] 
Торрент файл
Размер: 6.92 GB • Зарегистрирован: 4 года • Статус: Проверено
Скачан: 85 раз • Желающих скачать: 0 • Поблагодарили: 23 раза
 Раздают: 0  |  0 KB/s  ]   Качают: 0  |  0 KB/s  ] 
 Полного источника не было 3 года 1 месяц 
Сообщения
 Добавлено: 2012-12-01 01:21
Аватара пользователя
Стаж: 5 лет 6 месяцев
Возраст: 30
Сообщений: 353
Спасибок: 7455
Порочная страсть / Arbitrage

Изображение


Год выпуска: 2012
Страна: США (Alvernia Production, Artina Films, Green Room Films, LB Productions, Lionsgate, Lucky Monkey Pictures, Parlay Films, Treehouse Pictures)
Слоган: «Власть - лучшее алиби»
Жанр: триллер, драма
Продолжительность: 01:42:19
Перевод: Профессиональный (дубляж)
Дублеры: Владимир Герасимов, Елена Соловьева, Андрей Бархударов, Валентина Абрамова, Татьяна Шитова + Профессиональный (дубляж)
Дублеры: Владимир Герасимов, Елена Соловьева, Андрей Бархударов, Валентина Абрамова, Татьяна Шитова + Оригинальная звуковая дорожка
Субтитры: Нет

Режиссёр: Николас Джареки / Nicholas Jarecki
Сценарист: Николас Джареки / Nicholas Jarecki
Продюсер: Лаура Бикфорд, Джастин Наппи, Роберт Салерно
Оператор: Йорик Ле Со
Композитор: Клифф Мартинес
В ролях: Ричард Гир, Сьюзен Сарандон, Тим Рот, Брит Марлинг, Летиция Каста, Нэйт Паркер, Уильям Фридкин, Моника Реймунд, Джош Пэйс, Кристофер Айджмен

Описание: Роберт Миллер — харизматичный аферист и гениальный любовник. Он привык к тому, что в постелях его всегда ждут жена и любовница, которые, правда, попеременно закатывают ему скандалы, а огромные деньги делаются просто из воздуха. Но дутый бизнес не может держаться долго. Почуяв провал, он стремится поскорее продать свой хедж-фонд крупному банку, прежде чем раскроются его махинации. Непредвиденные события и нелепые ошибки толкают его на отчаянный шаг…

Доп.информация: Анонсы
Рейтинг MPAA: Рейтинг R (Подростки до 17 лет допускаются на фильм только в сопровождении одного из родителей)
Мировая премьера: 21 января 2012
Премьера в России: 4 октября 2012, «Парадиз»
Кассовые сборы: $20 730 443

Изображение Изображение Изображение

Качество: DVD9 R5
Формат: DVD Video
Видео кодек: MPEG2
Аудио кодек: DTS
Видео: PAL 16:9 (720x576(0.574)) MPEG Video, 25,000 кадр/сек, 5950 Кбит/сек
Аудио #1: Russian (Dolby AC3, 6 ch) 448 Кбит/сек, 48,0 КГц [Профессиональный (дубляж)]
Аудио #2: Russian (DTS, 5 ch) 1536 Кбит/сек, 48,0 КГц [Профессиональный (дубляж)]
Аудио #3: English (Dolby AC3, 6 ch) 448 Кбит/сек, 48,0 КГц [Оригинальная звуковая дорожка]
Субтитры: Нет

"DVDInfo"
Title: Porochnaya.strast.2012.DVD9
Size: 6.92 Gb ( 7 251 806,00 KBytes ) - DVD-9
Enabled regions: 1, 2, 3, 4, 5, 6, 7, 8

VTS_01 :
Play Length: 00:00:07
Video: PAL 16:9 (720x576) VBR, Auto Letterboxed
Audio:
Russian (LinearPCM, 2 ch)

VTS_02 :
Play Length: 00:00:15
Video: PAL 4:3 (720x576) VBR
Audio:
Russian (Dolby AC3, 2 ch)

VTS_03 :
Play Length: 01:42:19
Video: PAL 16:9 (720x576) VBR, Auto Letterboxed
Audio:
Russian (Dolby AC3, 6 ch)
Russian (DTS, 5 ch)
English (Dolby AC3, 2 ch)

VTS_04 :
Play Length: 00:00:00
Video: PAL 16:9 (720x576) VBR, Auto Letterboxed
Audio:
Russian (Dolby AC3, 2 ch)
Russian (Dolby AC3, 2 ch)
English (Dolby AC3, 2 ch)

VTS_05 :
Play Length: 00:00:00
Video: PAL 16:9 (720x576) VBR, Auto Letterboxed
Audio:
Russian (Dolby AC3, 2 ch)
Russian (Dolby AC3, 2 ch)
English (Dolby AC3, 2 ch)

VTS_06 :
Play Length: 00:02:18
Video: PAL 16:9 (720x576) VBR, Auto Letterboxed
Audio:
Russian (Dolby AC3, 2 ch)

VTS_07 :
Play Length: 00:02:01
Video: PAL 16:9 (720x576) VBR, Auto Letterboxed
Audio:
Russian (LinearPCM, 2 ch)

VTS_08 :
Play Length: 00:02:04
Video: PAL 16:9 (720x576) VBR, Auto Letterboxed
Audio:
Russian (LinearPCM, 2 ch)

VTS_09 :
Play Length: 00:02:28
Video: PAL 16:9 (720x576) VBR, Auto Letterboxed
Audio:
Russian (LinearPCM, 2 ch)

VTS_10 :
Play Length: 00:01:41
Video: PAL 16:9 (720x576) VBR, Auto Letterboxed
Audio:
Russian (LinearPCM, 2 ch)

VTS_11 :
Play Length: 00:01:57
Video: PAL 16:9 (720x576) VBR, Auto Letterboxed
Audio:
Russian (LinearPCM, 2 ch)

VTS_12 :
Play Length: 00:02:07
Video: PAL 16:9 (720x576) VBR, Auto Letterboxed
Audio:
Russian (LinearPCM, 2 ch)

VTS_13 :
Play Length: 00:02:01
Video: PAL 16:9 (720x576) VBR, Auto Letterboxed
Audio:
Russian (LinearPCM, 2 ch)

* Menus Information *

VIDEO_TS Menu
Video:
PAL 4:3 (720x576) VBR
English Language Unit :
Title Menu

VTS_01 Menu
Video:
PAL 16:9 (720x576) VBR
Auto Letterboxed
Audio:
Not specified (Dolby AC3, 2 ch)
English Language Unit :
Root Menu

VTS_02 Menu
Video:
PAL 4:3 (720x576) VBR
English Language Unit :
Root Menu

VTS_03 Menu
Video:
PAL 4:3 (720x576) VBR
English Language Unit :
Root Menu

VTS_04 Menu
Video:
PAL 4:3 (720x576) VBR
English Language Unit :
Root Menu

VTS_05 Menu
Video:
PAL 4:3 (720x576) VBR
English Language Unit :
Root Menu

VTS_06 Menu
Video:
PAL 4:3 (720x576) VBR
English Language Unit :
Root Menu

VTS_07 Menu
Video:
PAL 4:3 (720x576) VBR
English Language Unit :
Root Menu

VTS_08 Menu
Video:
PAL 4:3 (720x576) VBR
English Language Unit :
Root Menu

VTS_09 Menu
Video:
PAL 4:3 (720x576) VBR
English Language Unit :
Root Menu

VTS_10 Menu
Video:
PAL 4:3 (720x576) VBR
English Language Unit :
Root Menu

VTS_11 Menu
Video:
PAL 4:3 (720x576) VBR
English Language Unit :
Root Menu

VTS_12 Menu
Video:
PAL 4:3 (720x576) VBR
English Language Unit :
Root Menu

VTS_13 Menu
Video:
PAL 4:3 (720x576) VBR
English Language Unit :
Root Menu
Свернуть

"MediaInfo"
Общее
Полное имя : J:\Новинки 2012\Porochnaya.strast.2012.DVD9\VIDEO_TS\VTS_03_1.VOB
Формат : MPEG-PS
Размер файла : 1024 Мбайт
Продолжительность : 16 м.
Режим общего битрейта : Переменный
Общий поток : 8525 Кбит/сек

Видео
Идентификатор : 224 (0xE0)
Формат : MPEG Video
Версия формата : Version 2
Профиль формата : Main@Main
Параметр BVOP формата : Да
Параметр матрицы формата : По умолчанию
Параметр GOP формата : M=3, N=12
Продолжительность : 16 м.
Вид битрейта : Переменный
Битрейт : 5950 Кбит/сек
Максимальный битрейт : 7500 Кбит/сек
Ширина : 720 пикселей
Высота : 576 пикселей
Соотношение сторон : 16:9
Частота кадров : 25,000 кадров/сек
Стандарт вещания : PAL
Цветовое пространство : YUV
Субдискретизация насыщенности : 4:2:0
Битовая глубина : 8 бит
Тип развёртки : Прогрессивная
Метод сжатия : С потерями
Бит/(Пиксели*Кадры) : 0.574
Размер потока : 715 Мбайт (70%)

Аудио #1
Идентификатор : 189 (0xBD)-128 (0x80)
Формат : AC-3
Формат/Информация : Audio Coding 3
Расширение режима : CM (complete main)
Параметр Endianness формата : Big
Режим смешивания : DVD-Video
Продолжительность : 16 м.
Вид битрейта : Постоянный
Битрейт : 448 Кбит/сек
Каналы : 6 каналов
Расположение каналов : Front: L C R, Side: L R, LFE
Частота : 48,0 КГц
Битовая глубина : 16 бит
Метод сжатия : С потерями
Размер потока : 53,8 Мбайт (5%)

Аудио #2
Идентификатор : 189 (0xBD)-130 (0x82)
Формат : AC-3
Формат/Информация : Audio Coding 3
Расширение режима : CM (complete main)
Параметр Endianness формата : Big
Режим смешивания : DVD-Video
Продолжительность : 16 м.
Вид битрейта : Постоянный
Битрейт : 448 Кбит/сек
Каналы : 2 канала
Расположение каналов : Front: L R
Частота : 48,0 КГц
Битовая глубина : 16 бит
Метод сжатия : С потерями
Размер потока : 53,8 Мбайт (5%)

Аудио #3
Идентификатор : 189 (0xBD)-137 (0x89)
Формат : DTS
Формат/Информация : Digital Theater Systems
Режим : 16
Параметр Endianness формата : Big
Режим смешивания : DVD-Video
Продолжительность : 16 м.
Вид битрейта : Постоянный
Битрейт : 1510 Кбит/сек
Каналы : 6 каналов
Расположение каналов : Front: L C R, Side: L R, LFE
Частота : 48,0 КГц
Битовая глубина : 16 бит
Метод сжатия : С потерями
Размер потока : 181 Мбайт (18%)

Свернуть

Скриншоты
Скриншоты меню
Изображение
Изображение
Изображение
Изображение
Свернуть
Изображение
Изображение
Изображение
Изображение
Изображение
Изображение
Изображение
Изображение
Изображение
Изображение
Свернуть


ИзображениеИзображение
Не в сети
Профиль  
 Добавлено: 2012-12-01 21:07 (спустя 19 часов)
Модератор релиз-группы
Аватара пользователя
Стаж: 6 лет 5 месяцев
Возраст: 25
Сообщений: 622
Спасибок: 10258
Лайков: 7
Дублеры 2 раза :hi_hi_hi:
_________________
Изображение
Не в сети
Профиль  
 Добавлено: 2012-12-07 00:05 (спустя 5 дней)
Аватара пользователя
Стаж: 7 лет 4 месяца
Сообщений: 26
Спасибок: 2
СПАСИБО :co_ol: Вечерком посмотрю
Не в сети
Профиль  
 Добавлено: 2012-12-09 21:49 (спустя 2 дня 21 час)
Стаж: 7 лет 4 месяца
Сообщений: 47
фильм супер! шикарный! :men:
Не в сети
Профиль  
Начать новую темуОтветить на тему  [ Сообщений: 4 ] 
Вы не можете начинать темы
Вы не можете отвечать на сообщения
Вы не можете редактировать свои сообщения
Вы не можете удалять свои сообщения