Правила форума

  • В этом разделе создание новых тем Запрещено.
  • Для создания новых тем пользуйтесь Корневым разделом DVD и HD фильмы.
Начать новую темуОтветить на тему  [ 1 сообщение ] 
Торрент файл
Размер: 5.17 GB • Зарегистрирован: 4 года 6 месяцев • Статус: Проверено
Скачан: 67 раз • Желающих скачать: 0 • Поблагодарили: 7 раз
 Раздают: 0  |  0 KB/s  ]   Качают: 0  |  0 KB/s  ] 
 Полного источника не было 1 год 1 месяц 
Сообщения
 Добавлено: 2012-05-19 23:40
Аватара пользователя
Стаж: 5 лет 6 месяцев
Возраст: 30
Сообщений: 353
Спасибок: 7455
Право на «лево» / Les infideles

Изображение


Год выпуска: 2012
Страна: Франция (Black Dynamite films, Canal+ [fr], Ciné, Cool Industrie, JD Prod, M6, M6 Films, Mars Film, Sofica Manon 2, Tordjman Levy Bros, W9, Wild Bunch)
Жанр: комедия
Продолжительность: 01:47:06
Перевод: Профессиональный (дубляж)
Субтитры: Нет

Режиссёр: Эмманюэль Берко, Фред Кавайе, Александр Кортес / Emmanuelle Bercot, Fred Cavaye, Alexandre Courtes
Сценарист: Николас Бедос, Филипп Каверьвье, Жан Дюжарден
Продюсер: Жан Дюжарден, Марк Дюжарден, Эрик Ханнецо
Оператор: Гийом Шиффман
Композитор: Пино Д’Aнджо, Евгений Гальперин
В ролях: Жан Дюжарден, Жиль Леллуш, Лионель Абелански, Фабрис Агоге, Пьер Бенуа, Вайолетт Бланкер, Венсан Боннассо, Бастьен Буллон, Гийом Кане, Селестин Шаплен

Описание: Мужская неверность, во всех ее отчаянно абсурдных, умопомрачительно смешных проявлениях — чем не тема для новой комедии? Жан и Жиль в погоне за приключениями готовы на все. Жизнь их изрядно помотала, калейдоскопом меняя декорации вокруг: небольшой отель на окраине города сменялся клиникой для сексуально зависимых, а шикарный парижский ночной клуб роскошными казино Лас-Вегаса… Испробовав все возможные прелести бытия, приятели решают поближе заняться прекрасным полом, соблазняя и заманивая девушек в постель…

Доп.информация: нет
Мировая премьера: 29 февраля 2012
Премьера в России: 19 апреля 2012, «Люксор»
Бюджет: €12 000 000
Кассовые сборы: $20 800 000


Изображение Изображение Изображение


Качество: DVD9 R5
Формат: DVD Video
Видео кодек: MPEG2
Аудио кодек: AC3 (Dolby Digital)
Видео: PAL 16:9 (720x576(0.583)) MPEG Video, 25,000 кадр/сек, 6044 Кбит/сек
Аудио #1: Russian (Dolby AC3, 2 ch) 192 Кбит/сек, 48,0 КГц [Профессиональный (дубляж)]
Аудио #2: Russian (Dolby AC3, 6 ch) 448 Кбит/сек, 48,0 КГц [Профессиональный (дубляж)]
Субтитры: Нет

"DVDInfo"
Title:
Size: 5.17 Gb ( 5 422 172 KBytes ) - DVD-9
Enabled regions: 1, 2, 3, 4, 5, 6, 7, 8

VTS_01 :
Play Length: 00:00:19
Video: PAL 4:3 (720x576) VBR
Audio:
Russian (Dolby AC3, 2 ch)

VTS_02 :
Play Length: 00:00:02
Video: PAL 16:9 (720x576) VBR, Auto Pan&Scan
Audio:
Russian (Dolby AC3, 2 ch)

VTS_03 :
Play Length: 01:47:06
Video: PAL 16:9 (720x576) VBR, Auto Pan&Scan
Audio:
Russian (Dolby AC3, 2 ch)
Russian (Dolby AC3, 6 ch)

Menu Video:
PAL 4:3 (720x576) VBR
Menu English Language Unit :
Root Menu
Audio Menu
Chapter (PTT) Menu
Свернуть

"MediaInfo"
Общее
Полное имя : J:\Новинки 2012\Pravo.na.levo.2012.DVD9\VIDEO_TS\VTS_03_5.VOB
Формат : MPEG-PS
Размер файла : 1024 Мбайт
Продолжительность : 20 м.
Режим общего битрейта : Переменный
Общий поток : 6820 Кбит/сек

Видео
Идентификатор : 224 (0xE0)
Формат : MPEG Video
Версия формата : Version 2
Профиль формата : Main@Main
Параметр BVOP формата : Да
Параметр матрицы формата : По умолчанию
Параметр GOP формата : M=3, N=12
Продолжительность : 20 м.
Вид битрейта : Переменный
Битрейт : 6044 Кбит/сек
Максимальный битрейт : 8400 Кбит/сек
Ширина : 720 пикселей
Высота : 576 пикселей
Соотношение сторон : 16:9
Частота кадров : 25,000 кадров/сек
Стандарт вещания : PAL
Цветовое пространство : YUV
Субдискретизация насыщенности : 4:2:0
Битовая глубина : 8 бит
Тип развёртки : Прогрессивная
Метод сжатия : С потерями
Бит/(Пиксели*Кадры) : 0.583
Размер потока : 907 Мбайт (89%)

Аудио #1
Идентификатор : 189 (0xBD)-128 (0x80)
Формат : AC-3
Формат/Информация : Audio Coding 3
Расширение режима : CM (complete main)
Параметр Endianness формата : Big
Режим смешивания : DVD-Video
Продолжительность : 20 м.
Вид битрейта : Постоянный
Битрейт : 192 Кбит/сек
Каналы : 2 канала
Расположение каналов : Front: L R
Частота : 48,0 КГц
Битовая глубина : 16 бит
Метод сжатия : С потерями
Задержка видео : -512 мс.
Размер потока : 28,8 Мбайт (3%)

Аудио #2
Идентификатор : 189 (0xBD)-129 (0x81)
Формат : AC-3
Формат/Информация : Audio Coding 3
Расширение режима : CM (complete main)
Параметр Endianness формата : Big
Режим смешивания : DVD-Video
Продолжительность : 20 м.
Вид битрейта : Постоянный
Битрейт : 448 Кбит/сек
Каналы : 6 каналов
Расположение каналов : Front: L C R, Side: L R, LFE
Частота : 48,0 КГц
Битовая глубина : 16 бит
Метод сжатия : С потерями
Задержка видео : -576 мс.
Размер потока : 67,3 Мбайт (7%)

Свернуть

Скриншоты
Скриншоты меню
Изображение
Изображение
Изображение
Свернуть
Изображение
Изображение
Изображение
Изображение
Изображение
Изображение
Изображение
Изображение
Изображение
Изображение
Свернуть

Знаете ли Вы, что...
В сценарии каждая новелла имеет своё название. На экране эти названия появляются только в финальных титрах. Это, по порядку: «Пролог», «Бернар», «Чистая совесть», «Лолита», «Тибо», «Вопрос», «Симон», «Анонимные сексоголики», «Лас-Вегас».
Свернуть

Изображение
Не в сети
Профиль  
Начать новую темуОтветить на тему  [ 1 сообщение ] 
Вы не можете начинать темы
Вы не можете отвечать на сообщения
Вы не можете редактировать свои сообщения
Вы не можете удалять свои сообщения