Правила форума

  • В этом разделе создание новых тем Запрещено.
  • Для создания новых тем пользуйтесь Корневым разделом DVD и HD фильмы.
Начать новую темуОтветить на тему  [ 1 сообщение ] 
Торрент файл
Размер: 4.37 GB • Зарегистрирован: 4 года 6 месяцев • Статус: Проверено
Скачан: 133 раза • Желающих скачать: 0 • Поблагодарили: 25 раз
 Раздают: 0  |  0 KB/s  ]   Качают: 0  |  0 KB/s  ] 
 Полного источника не было 6 месяцев 
Сообщения
 Добавлено: 2012-05-20 02:53
Руководитель релиз-группы
Аватара пользователя
Стаж: 7 лет 4 месяца
Возраст: 31
Сообщений: 3407
Спасибок: 46729
Лайков: 5
Изображение

Право на «лево»
Les infideles


Год выпуска: 2012
Страна: Франция
Жанр: комедия
Продолжительность: 01:47:06
Перевод: Профессиональный (полное дублирование)
Режиссер: Эмманюэль Берко, Фред Кавайе, Александр Кортес
Сценарий: Николас Бедос, Филипп Каверьвье, Жан Дюжарден
Продюсер: Жан Дюжарден, Марк Дюжарден, Эрик Ханнецо
Оператор: Гийом Шиффман
Композитор: Пино Д’Aнджо, Евгений Гальперин
В ролях: Жан Дюжарден, Жиль Леллуш, Лионель Абелански, Фабрис Агоге, Пьер Бенуа, Вайолетт Бланкер, Венсан Боннассо, Бастьен Буллон, Гийом Кане, Селестин Шаплен
Бюджет: €12 000 000
Сборы в мире: $20 800 000
Описание: Мужская неверность, во всех ее отчаянно абсурдных, умопомрачительно смешных проявлениях - чем не тема для новой комедии? Жан и Жиль в погоне за приключениями готовы на все. Жизнь их изрядно помотала, калейдоскопом меняя декорации вокруг: небольшой отель на окраине города сменялся клиникой для сексуально зависимых, а шикарный парижский ночной клуб роскошными казино Лас-Вегаса… Испробовав все возможные прелести бытия, приятели решают поближе заняться прекрасным полом, соблазняя и заманивая девушек в постель...
Изображение
Релиз: Изображение Раздача группы: Изображение
Качество: DVD5 (сжатый)
Формат: DVD Video
Видео: MPEG2; PAL 16:9 (720x576)
Аудио: Dolby AC3, 6 ch, 448 Kbps Russian
Субтитры: нет
Дополнительная информация :
Исходник : DVD9 (5.17 Гб) [лицензия, PAL 16:9]
Убрано : реклама, заставки, предупреждения, Russian (Dolby AC3, 2 ch)
Сжатие фильма : 16.1 % сжатия (без учета ручного перераспределения битрейта, за счет большего сжатия конечных титров)
использовались программы
    DVDRemakePro
    Photoshop
    MuxMan
    Rebuilder и CCE (Cinema Craft Encoder), 5 проходов
    Работоспособность проверена на софтовом плеере Windows Media и бытовом LG
Свернуть
DVDInfo
    Title: Pravo.na.levo_2012_DVD5.[R.G.Daredevil]
    Size: 4.37 Gb ( 4 580 004,00 KBytes ) - DVD-5
    Enabled regions: 1, 2, 3, 4, 5, 6, 7, 8

    VTS_01 :
    Play Length: 00:00:00
    Video: PAL 4:3 (720x576) VBR
    Audio:
    Russian (Dolby AC3, 2 ch)

    VTS_02 :
    Play Length: 00:00:02
    Video: PAL 16:9 (720x576) VBR, Auto Letterboxed
    Audio:
    Russian (Dolby AC3, 2 ch)

    VTS_03 :
    Play Length: 01:47:06
    Video: PAL 16:9 (720x576) VBR, Auto Letterboxed
    Audio:
    Russian (Dolby AC3, 2 ch)
Свернуть
mediainfo
    Формат : MPEG-PS
    Размер файла : 1024 Мбайт
    Продолжительность : 23 м.
    Режим общего битрейта : Переменный
    Общий поток : 6052 Кбит/сек

    Видео
    Идентификатор : 224 (0xE0)
    Формат : MPEG Video
    Версия формата : Version 2
    Профиль формата : Main@Main
    Параметр BVOP формата : Да
    Параметр матрицы формата : Выборочная
    Продолжительность : 23 м.
    Вид битрейта : Переменный
    Битрейт : 5484 Кбит/сек
    Максимальный битрейт : 8675 Кбит/сек
    Ширина : 720 пикселей
    Высота : 576 пикселей
    Соотношение сторон : 16:9
    Частота кадров : 25,000 кадров/сек
    Стандарт вещания : PAL
    Цветовое пространство : YUV
    Субдискретизация насыщенности : 4:2:0
    Битовая глубина : 8 бит
    Тип развёртки : Прогрессивная
    Порядок развёртки : Нижнее поле первое
    Метод сжатия : С потерями
    Бит/(Пиксели*Кадры) : 0.529
    Размер потока : 928 Мбайт (91%)

    Аудио
    Идентификатор : 189 (0xBD)-129 (0x81)
    Формат : AC-3
    Формат/Информация : Audio Coding 3
    Расширение режима : CM (complete main)
    Режим смешивания : DVD-Video
    Продолжительность : 23 м.
    Вид битрейта : Постоянный
    Битрейт : 448 Кбит/сек
    Каналы : 6 каналов
    Расположение каналов : Front: L C R, Side: L R, LFE
    Частота : 48,0 КГц
    Битовая глубина : 16 бит
    Метод сжатия : С потерями
    Размер потока : 75,8 Мбайт (7%)

    Меню

Свернуть
Знаете ли Вы, что...
  • В сценарии каждая новелла имеет своё название. На экране эти названия появляются только в финальных титрах. Это, по порядку: «Пролог», «Бернар», «Чистая совесть», «Лолита», «Тибо», «Вопрос», «Симон», «Анонимные сексоголики», «Лас-Вегас».
Свернуть
Скриншоты

меню
Изображение
Изображение
Свернуть
Изображение
Изображение
Изображение
Изображение
Свернуть
Не в сети
Профиль  
Начать новую темуОтветить на тему  [ 1 сообщение ] 
Вы не можете начинать темы
Вы не можете отвечать на сообщения
Вы не можете редактировать свои сообщения
Вы не можете удалять свои сообщения