Правила форума

  • В этом разделе создание новых тем Запрещено.
  • Для создания новых тем пользуйтесь Корневым разделом DVD и HD фильмы.
Начать новую темуОтветить на тему  [ 1 сообщение ] 
Торрент файл
Размер: 6.67 GB • Зарегистрирован: 5 лет 1 месяц • Статус: Проверено
Скачан: 77 раз • Желающих скачать: 0 • Поблагодарили: 16 раз
 Раздают: 0  |  0 KB/s  ]   Качают: 0  |  0 KB/s  ] 
 Полного источника не было 3 года 2 месяца 
Сообщения
 Добавлено: 2011-10-18 19:33
Аватара пользователя
Стаж: 5 лет 6 месяцев
Возраст: 30
Сообщений: 353
Спасибок: 7455
Предел риска / Margin Call

Изображение


Год выпуска: 2011
Страна: США (Before The Door Pictures, Benaroya Pictures, Margin Call, Sakonnet Capital Partners, Washington Square Films)
Слоган: «Как спасти деньги?»
Жанр: триллер, драма
Продолжительность: 01:42:08
Перевод: Профессиональный (дубляж)
Дублеры: Евгений Пашин, Владимир Терещук, Михаил Жонин, Андрей Саминин, Елена Блинникова
Субтитры: Нет

Режиссёр: Джей Си Чендор / J.C. Chandor
Сценарист: Джей Си Чендор / J.C. Chandor
Продюсер: Джо Дженкс, Кори Мооса, Закари Куинто
Оператор: Фрэнк Дж. ДеМарко
Композитор: Натан Ларсон

В ролях: Кевин Спейси, Пол Беттани, Джереми Айронс, Закари Куинто, Пенн Бэджли, Саймон Бейкер, Мэри МакДоннелл, Деми Мур, Стенли Туччи, Аасиф Мандви

Описание: Сентябрь 2008 года. Мировой экономический кризис уже начался, но Америка еще не знает, какая катастрофа ждет впереди, и только группа топ-менеджеров на Уолл-Стрит ищет рецепт спасения. Это были самые страшные часы в их жизни…
Сотрудник одного из крупнейших инвестиционных банков с помощью новейшей программы рыночного анализа получает ошеломляющий прогноз — акции упадут, рынок рухнет, банк потеряет все. Утром следующего дня он попадает под сокращение и перед уходом передает флэшку с опасной информацией своему бывшему помощнику. К вечеру лучшие аналитики банка, проверив эти вычисления, осознали ужасную перспективу: крах неминуем. Теперь они стоят перед выбором: начать срочный сброс акций, что оставит и крупных акционеров во всем мире, и миллионы рядовых вкладчиков ни с чем — или ждать развития событий, что чревато потерей вообще всего. Решать нужно здесь и сейчас. На кону — огромные деньги и будущее каждого. В эту ночь у риска нет предела

Доп.информация: Смотрите на DVD
Рейтинг MPAA: Рейтинг R (Подростки до 17 лет допускаются на фильм только в сопровождении одного из родителей)
Мировая премьера: 25 января 2011
Премьера в России: 29 сентября 2011, «Top Film Distribution»
Бюджет: $3 395 000
Кассовые сборы: $712 873

Изображение Изображение Изображение

Качество: DVD9 R5
Формат: DVD Video
Видео кодек: MPEG2
Аудио кодек: AC3 (Dolby Digital)
Видео: PAL 16:9 (720x576(0.797)) MPEG Video, 25,000 кадр/сек, 8266 Кбит/сек
Аудио #1: Russian (Dolby AC3, 6 ch) 448 Кбит/сек, 48,0 КГц [Профессиональный (дубляж)]
Субтитры: Нет

"DVDInfo"
Title: Рабочий
Size: 6.67 Gb ( 6 989 534 KBytes ) - DVD-9
Enabled regions: 1, 2, 3, 4, 5, 6, 7, 8

VTS_01 :
Play Length: 00:00:46
Video: PAL 16:9 (720x576) VBR, Auto Letterboxed
Audio:
Russian (Dolby AC3, 2 ch)

VTS_02 :
Play Length: 01:42:08
Video: PAL 16:9 (720x576) VBR, Auto Letterboxed
Audio:
Russian (Dolby AC3, 6 ch)

VTS_03 :
Play Length: 00:01:52+00:01:41+00:01:51
Video: PAL 16:9 (720x576) VBR, Auto Letterboxed
Audio:
Russian (Dolby AC3, 2 ch)

Свернуть

"MediaInfo"
Общее
Полное имя : G:\Новинки 2011\Predel.riska.2011.DVD9\VIDEO_TS\VTS_02_1.VOB
Формат : MPEG-PS
Размер файла : 1024 Мбайт
Продолжительность : 16 м.
Общий поток : 8891 Кбит/сек

Видео
Идентификатор : 224 (0xE0)
Формат : MPEG Video
Версия формата : Version 2
Профиль формата : Main@Main
Параметр BVOP формата : Да
Параметр матрицы формата : По умолчанию
Параметр GOP формата : M=3, N=15
Продолжительность : 16 м.
Вид битрейта : Переменный
Битрейт : 8266 Кбит/сек
Максимальный битрейт : 9000 Кбит/сек
Ширина : 720 пикселей
Высота : 576 пикселей
Соотношение сторон : 16:9
Частота кадров : 25,000 кадров/сек
Стандарт вещания : PAL
Цветовое пространство : YUV
Субдискретизация насыщенности : 4:2:0
Битовая глубина : 8 бит
Тип развёртки : Прогрессивная
Метод сжатия : С потерями
Бит/(Пиксели*Кадры) : 0.797
Размер потока : 952 Мбайт (93%)

Аудио
Идентификатор : 189 (0xBD)-128 (0x80)
Формат : AC-3
Формат/Информация : Audio Coding 3
Расширение режима : CM (complete main)
Режим смешивания : DVD-Video
Продолжительность : 16 м.
Вид битрейта : Постоянный
Битрейт : 448 Кбит/сек
Каналы : 6 каналов
Расположение каналов : Front: L C R, Side: L R, LFE
Частота : 48,0 КГц
Битовая глубина : 16 бит
Метод сжатия : С потерями
Задержка видео : -80 мс.
Размер потока : 51,6 Мбайт (5%)
Свернуть

Скриншоты
Скриншоты меню
Изображение
Изображение
Изображение
Свернуть
Изображение
Изображение
Изображение
Изображение
Изображение
Изображение
Изображение
Изображение
Свернуть


Изображение Изображение
Не в сети
Профиль  
Начать новую темуОтветить на тему  [ 1 сообщение ] 
Вы не можете начинать темы
Вы не можете отвечать на сообщения
Вы не можете редактировать свои сообщения
Вы не можете удалять свои сообщения