Правила форума

  • В этом разделе создание новых тем Запрещено.
  • Для создания новых тем пользуйтесь Корневым разделом DVD и HD фильмы.
Начать новую темуОтветить на тему  [ 1 сообщение ] 
Торрент файл
Размер: 4.38 GB • Зарегистрирован: 5 лет 1 месяц • Статус: Проверено
Скачан: 109 раз • Желающих скачать: 0 • Поблагодарили: 21 раз
 Раздают: 0  |  0 KB/s  ]   Качают: 0  |  0 KB/s  ] 
 Полного источника не было 6 месяцев 
Сообщения
 Добавлено: 2011-10-18 21:56
Руководитель релиз-группы
Аватара пользователя
Стаж: 7 лет 5 месяцев
Возраст: 31
Сообщений: 3406
Спасибок: 46729
Лайков: 5
Изображение

Предел риска
Margin Call


Год выпуска: 2011
Страна: США
Слоган: «Как спасти деньги?»
Жанр: триллер, драма
Продолжительность: 01:42:08
Перевод: Профессиональный (полное дублирование)
Режиссер: Джей Си Чендор
Сценарий: Джей Си Чендор
Продюсер: Джо Дженкс, Кори Мооса, Закари Куинто
Оператор: Фрэнк Дж. ДеМарко
Композитор: Натан Ларсон
В ролях: Кевин Спейси, Пол Беттани, Джереми Айронс, Закари Куинто, Пенн Бэджли, Саймон Бейкер, Мэри МакДоннелл, Деми Мур, Стенли Туччи, Аасиф Мандви
Бюджет: $3 395 000
Сборы в мире: $712 873
Описание: Сентябрь 2008 года. Мировой экономический кризис уже начался, но Америка еще не знает, какая катастрофа ждет впереди, и только группа топ-менеджеров на Уолл-Стрит ищет рецепт спасения. Это были самые страшные часы в их жизни...
Сотрудник одного из крупнейших инвестиционных банков с помощью новейшей программы рыночного анализа получает ошеломляющий прогноз - акции упадут, рынок рухнет, банк потеряет все. Утром следующего дня он попадает под сокращение и перед уходом передает флэшку с опасной информацией своему бывшему помощнику. К вечеру лучшие аналитики банка, проверив эти вычисления, осознали ужасную перспективу: крах неминуем. Теперь они стоят перед выбором: начать срочный сброс акций, что оставит и крупных акционеров во всем мире, и миллионы рядовых вкладчиков ни с чем - или ждать развития событий, что чревато потерей вообще всего. Решать нужно здесь и сейчас. На кону - огромные деньги и будущее каждого. В эту ночь у риска нет предела...
Изображение
MPAA: Изображение
Релиз: Изображение Раздача группы: Изображение
Качество: DVD5 (сжатый)
Формат: DVD Video
Видео: MPEG2; PAL 16:9 (720x576)
Аудио: Dolby AC3, 6 ch, 448 Kbps Russian
Субтитры: нет
Дополнительная информация :
Исходник : DVD9 (6.67 Гб) [лицензия, PAL 16:9]
Убрано : реклама, заставки, предупреждения
Сжатие фильма : 34.7 % сжатия (без учета ручного перераспределения битрейта, за счет большего сжатия конечных титров)
использовались программы
    DVDRemakePro
    Photoshop
    MuxMan
    Rebuilder и CCE (Cinema Craft Encoder), 5 проходов
    Работоспособность проверена на софтовом плеере Windows Media и бытовом LG
Свернуть
DVDInfo
    Title: Predel.riska_2011_DVD5.[R.G.Daredevil]
    Size: 4.38 Gb ( 4 588 830,00 KBytes ) - DVD-5
    Enabled regions: 1, 2, 3, 4, 5, 6, 7, 8

    VTS_01 :
    Play Length: 00:00:01
    Video: PAL 16:9 (720x576) VBR, Auto Letterboxed
    Audio:
    Russian (Dolby AC3, 2 ch)

    VTS_02 :
    Play Length: 01:42:08
    Video: PAL 16:9 (720x576) VBR, Auto Letterboxed
    Audio:
    Russian (Dolby AC3, 6 ch)

    * Menus Information *

    VIDEO_TS Menu
    Video:
    PAL 16:9 (720x576) VBR
    Auto Letterboxed
    Audio:
    Not specified (Dolby AC3, 2 ch)
    Russian Language Unit :
    Title Menu

    VTS_01 Menu
    Video:
    NTSC 4:3 (720x480) VBR
    Auto Pan&Scan, Auto Letterboxed
    Language Unit :
    Chapter (PTT) Menu

    VTS_02 Menu
    Video:
    PAL 16:9 (720x576) VBR
    Auto Letterboxed
    Audio:
    Not specified (Dolby AC3, 2 ch)
    Russian Language Unit :
    Root Menu
    Chapter (PTT) Menu
Свернуть
mediainfo
    Формат : MPEG-PS
    Размер файла : 1024 Мбайт
    Продолжительность : 21 м.
    Режим общего битрейта : Переменный
    Общий поток : 6532 Кбит/сек

    Видео
    Идентификатор : 224 (0xE0)
    Формат : MPEG Video
    Версия формата : Version 2
    Профиль формата : Main@Main
    Параметр BVOP формата : Да
    Параметр матрицы формата : Выборочная
    Продолжительность : 21 м.
    Вид битрейта : Переменный
    Битрейт : 5954 Кбит/сек
    Максимальный битрейт : 8857 Кбит/сек
    Ширина : 720 пикселей
    Высота : 576 пикселей
    Соотношение сторон : 16:9
    Частота кадров : 25,000 кадров/сек
    Стандарт вещания : PAL
    Цветовое пространство : YUV
    Субдискретизация насыщенности : 4:2:0
    Битовая глубина : 8 бит
    Тип развёртки : Прогрессивная
    Порядок развёртки : Нижнее поле первое
    Метод сжатия : С потерями
    Бит/(Пиксели*Кадры) : 0.574
    Размер потока : 933 Мбайт (91%)

    Аудио
    Идентификатор : 189 (0xBD)-128 (0x80)
    Формат : AC-3
    Формат/Информация : Audio Coding 3
    Расширение режима : CM (complete main)
    Режим смешивания : DVD-Video
    Продолжительность : 21 м.
    Вид битрейта : Постоянный
    Битрейт : 448 Кбит/сек
    Каналы : 6 каналов
    Расположение каналов : Front: L C R, Side: L R, LFE
    Частота : 48,0 КГц
    Битовая глубина : 16 бит
    Метод сжатия : С потерями
    Размер потока : 70,2 Мбайт (7%)

    Меню
Свернуть
Результат записи на диск DVD-R программой ImgBurn
Изображение
Свернуть
Скриншоты

меню
Изображение
Изображение
Свернуть
Изображение
Изображение
Изображение
Изображение
Свернуть
Не в сети
Профиль  
Начать новую темуОтветить на тему  [ 1 сообщение ] 
Вы не можете начинать темы
Вы не можете отвечать на сообщения
Вы не можете редактировать свои сообщения
Вы не можете удалять свои сообщения