Правила форума

  • В этом разделе создание новых тем Запрещено.
  • Для создания новых тем пользуйтесь Корневым разделом DVD и HD фильмы.
Начать новую темуОтветить на тему  [ Сообщений: 5 ] 
Торрент файл
Размер: 7.8 GB • Зарегистрирован: 5 лет 11 месяцев • Статус: Проверено
Скачан: 151 раз • Желающих скачать: 0 • Поблагодарили: 38 раз
 Раздают: 0  |  0 KB/s  ]   Качают: 0  |  0 KB/s  ] 
 Полного источника не было 3 года 2 месяца 
Сообщения
 Добавлено: 2010-12-20 20:01
Аватара пользователя
Стаж: 8 лет 6 месяцев
Возраст: 38
Сообщений: 1674
Спасибок: 16600
Лайков: 5
Изображение
Престиж
The Prestige



Год выпуска: 2006
Страна: США, Великобритания
Жанр: фэнтези, триллер, драма, детектив
Продолжительность: 02:10:29
Перевод:
  • Профессиональный дублированный R5
  • Профессиональный, многоголосный закадровый - Гланц
  • Оригинальная звуковая дорожка - английский
  • Cубтитры: русские, английские, французские


Режиссёр: Кристофер Нолан / Christopher Nolan

В ролях: Хью Джекман (Роберт Анджье), Кристиан Бэйл (Альфред Борден), Майкл Кейн (Каттер), Пайпер Перабо (Джулия), Скарлетт Йоханссон (Оливия), Дэвид Боуи (Никола Тесла), Ребекка Холл, Саманта Мэхурин, Энди Серкис и Дэниэл Дэвис

Описание:
 Роберт и Альфред — фокусники-иллюзионисты, которые на рубеже XIX и XX веков соперничали друг с другом в Лондоне. С годами их дружеская конкуренция на профессиональной почве перерастает в настоящую войну.
 Они готовы на все, чтобы выведать друг у друга секреты фантастических трюков и сорвать их исполнение. Непримиримая вражда, вспыхнувшая между ними, начинает угрожать жизни окружающих их людей…

Номинации на награды:
Жорж, 2008 год — Лучший высокобюджетный/зрелищный фильм
Оскар, 2007 год — Лучшая работа оператора и Лучшие декорации



IMDb 8.4/10 (219,061 votes)
КиноПоиск 8.620 (59 110)Top 250#16



  • Создатель «Красоты по-американски» Сэм Мендес безумно хотел перенести роман «Престиж» на экран, но автор романа Кристофер Прист настоял на том, чтобы экранизацией занялся Нолан, настолько он был впечатлен фильмами «Преследование» и «Помни».
  • Роль фокусника Милтона исполнил настоящий иллюзионист Рики Джей. Помимо всего прочего, он преподавал уроки фокусов Бэйлу и Джекману.
  • Фокусник Чанг Линг Су – не вымышленный герой. Скончался он на сцене, когда неудачно исполнил трюк «Поймай пулю».
  • Слово «престиж» упоминается в рекламном ролике фильма как «эффект, который производит магический трюк на аудиторию, не способную разгадать его тайну». В романе-первооснове это слово имеет и другой, по-настоящему мистический характер....Читать все


«Престиж»
(«The Prestige») — поставленная Кристофером Ноланом экранизация одноимённой фантастической драмы Кристофера Приста, написанной в 1995 году. Режиссёр вновь (после фильма «Бэтмен: Начало») выступает здесь в тандеме с актёром Кристианом Бэйлом.



Качество: DVD9 (Custom) Исходником для видео послужил Blu-ray(37.15 GB) Семпл
Формат: DVD-Video
Видео кодек: MPEG-2
Аудио кодек: AC3 (Dolby Digital)
Видео: MPEG-2, NTSC 16:9 (720x480), ~7417 Кбит/сек, 23,976 кадр/сек
Аудио #1: Dolby AC3, 6 ch, 448 Kbps [Профессиональный дублированный R5 ]
Аудио #2: Dolby AC3, 6 ch, 448 Kbps [Профессиональный, многоголосный закадровый - Гланц]
Аудио #3: Dolby AC3, 6 ch, 448 Kbps [Оригинальная звуковая дорожка]


Программное обеспечение изготовления релиза
  • Видео
    Canopus Procoder - конвертация видео
    AviSynth 2.5 - обработка видео
    DGIndexNV - индексирование
  • Програмы для разборки/сборки ДВД
    PgcDemux - демукс исходного DVD
    tsMuxeR - разборка ремукса
    MuxMan - сборка видео
  • Работа со звуком
    DelayCut - синхронизация звука
    Tranzcode - разборка оригинальной дорожки
    Vegas Pro 9.0- сборка АС3 дорожки
  • Работа с субтитрами
    DVDSubEdit - корректировка таймингов и расположения на экране субтитров
    BDSup2Sub - конвертация субтитров из BD в DVD
  • Работа с меню и реавторинг
    DVDReMakePro - реавторинг диска

Меню - Меню анимированное, озвученное, на английском языке, с навигацией по эпизодам.
Для записи рекомендуется программа ImgBurn. Инструкция

Свернуть
MediaInfo

Общее
Полное имя : D:\BD to DVD9\dvd\VTS_01_1.VOB
Формат : MPEG-PS
Размер файла : 1024 Мбайт
Продолжительность : 16 м.
Общий поток : 8939 Кбит/сек
Видео
Идентификатор : 224 (0xE0)
Формат : MPEG Video
Версия формата : Version 2
Профиль формата : Main@Main
Параметр BVOP формата : Да
Параметр матрицы формата : По умолчанию
Продолжительность : 16 м.
Вид битрейта : Переменный
Битрейт : 7417 Кбит/сек
Номинальный битрейт : 8400 Кбит/сек
Ширина : 720 пикс.
Высота : 480 пикс.
Соотношение сторон : 16:9
Частота кадров : 23,976 кадр/сек
Стандарт вещания : NTSC
Цветовое пространство : YUV
Подвыборка цветности : 4:2:0
Битовая глубина : 8 бит
Тип развёртки : Прогрессивная
Порядок развёртки : 2:3 Pulldown
Метод сжатия : С потерями
Бит/(Пиксели*Кадры) : 0.895
Размер потока : 850 Мбайт (83%)
Аудио #1
Идентификатор : 128 (0x80)
Формат : AC-3
Формат/Информация : Audio Coding 3
Расширение режима : CM (complete main)
Продолжительность : 16 м.
Вид битрейта : Постоянный
Битрейт : 448 Кбит/сек
Канал(ы) : 6 канала(ов)
Расположение каналов : Front: L C R, Side: L R, LFE
Частота : 48,0 КГц
Битовая глубина : 16 бит
Метод сжатия : С потерями
Размер потока : 51,3 Мбайт (5%)
Аудио #2
Идентификатор : 129 (0x81)
Формат : AC-3
Формат/Информация : Audio Coding 3
Расширение режима : CM (complete main)
Продолжительность : 16 м.
Вид битрейта : Постоянный
Битрейт : 448 Кбит/сек
Канал(ы) : 6 канала(ов)
Расположение каналов : Front: L C R, Side: L R, LFE
Частота : 48,0 КГц
Битовая глубина : 16 бит
Метод сжатия : С потерями
Размер потока : 51,3 Мбайт (5%)
Аудио #3
Идентификатор : 130 (0x82)
Формат : AC-3
Формат/Информация : Audio Coding 3
Расширение режима : CM (complete main)
Продолжительность : 16 м.
Вид битрейта : Постоянный
Битрейт : 448 Кбит/сек
Канал(ы) : 6 канала(ов)
Расположение каналов : Front: L C R, Side: L R, LFE
Частота : 48,0 КГц
Битовая глубина : 16 бит
Метод сжатия : С потерями
Размер потока : 51,3 Мбайт (5%)

Свернуть
script.avs

LoadPlugin("C:\Program Files (x86)\AviSynth 2.5\plugins\DGDecodeNV.dll")
DGSource("D:\BD to DVD9\MKV_Temp_1\00001.track_4113.dgi")
LoadPlugin("D:\BD to DVD9\programs\autoyuy2\AutoYUY2.dll") #более медленный, но качественный инструмент конверсии цветового пространства
AutoYUY2()
#Coloryuv(analyze=true) #проверка, цветового диапазона
LoadPlugin("D:\BD to DVD9\programs\ColorMatrix\ColorMatrix.dll")
ColorMatrix(mode="Rec.709->Rec.601", inputFR=false, clamp=0) #корректировка цветовой шкалы, если проверка показывает 16-235
#AssumeFPS("ntsc_film")
BicubicResize(720, 480, 0, 0.5) #ресайз методом Catmull-Rom spline
#AddBorders (0,0,0,0) #bbb=00

Свернуть
Скриншоты

Скриншоты фильма
Изображение
Изображение
Изображение
Изображение
Изображение

Свернуть
Скриншоты меню
Изображение
Изображение
Изображение

Свернуть
Свернуть

Изображение
Не в сети
Профиль  
 Добавлено: 2010-12-26 09:25 (спустя 5 дней)
Аватара пользователя
Стаж: 8 лет 6 месяцев
Возраст: 25
Сообщений: 1142
Спасибок: 12618
Лайков: 1
фильм очень понравился
_________________
Бугагашенька
Cкрытый текст
Siemens A35 -> Motorola C350 -> Siemens C62 -> Siemens M55 -> Siemens CX70 -> Philips 768 -> Sony Ericsson K790i -> Nokia 5530 XpressMusic -> Samsung Champ C3300 -> LG Optimus Hub -> Sony Xperia ZL
Свернуть
Не в сети
Профиль  
 Добавлено: 2010-12-27 15:45 (спустя 1 день 6 часов)
Аватара пользователя
Стаж: 8 лет 6 месяцев
Возраст: 38
Сообщений: 1674
Спасибок: 16600
Лайков: 5

ivan3006:

фильм очень понравился
Фильм великолепен, согласен, хотя я предпочитаю ему "Иллюзиониста" Нила Бёргера.
Не в сети
Профиль  
 Добавлено: 2012-07-12 20:04 (спустя 1 год 6 месяцев)
Аватара пользователя
Стаж: 8 лет 3 месяца
Возраст: 43
Сообщений: 3290
Спасибок: 21012
Лайков: 3
отличный фильм :co_ol:
_________________
Изображение
Не в сети
Профиль  
 Добавлено: 2012-12-12 23:02 (спустя 5 месяцев)
Стаж: 5 лет 10 месяцев
Сообщений: 15
шикарный,красивый фильм,как и "Иллюзианист" Спасибо автору!
Не в сети
Профиль  
Начать новую темуОтветить на тему  [ Сообщений: 5 ] 
Вы не можете начинать темы
Вы не можете отвечать на сообщения
Вы не можете редактировать свои сообщения
Вы не можете удалять свои сообщения