Правила форума

  • В этом разделе создание новых тем Запрещено.
  • Для создания новых тем пользуйтесь Корневым разделом DVD и HD фильмы.
Начать новую темуОтветить на тему  [ Сообщений: 9 ] 
Торрент файл
Размер: 4.36 GB • Зарегистрирован: 4 года 11 месяцев • Статус: Проверено
Скачан: 798 раз • Желающих скачать: 0 • Поблагодарили: 147 раз
 Раздают: 0  |  0 KB/s  ]   Качают: 0  |  0 KB/s  ] 
 Полного источника не было 3 часа 
Сообщения
 Добавлено: 2011-12-20 02:13
Руководитель релиз-группы
Аватара пользователя
Стаж: 7 лет 4 месяца
Возраст: 31
Сообщений: 3407
Спасибок: 46729
Лайков: 5
Изображение

Профессионал
Killer Elite


Год выпуска: 2011
Страна: США, Австралия
Жанр: боевик, триллер, криминал
Продолжительность: 01:51:32
Перевод: Профессиональный (полное дублирование)
Режиссер: Гэри МакКендри
Сценарий: Мэтт Шерринг, Ранульф Файнс
Продюсер: Майкл Буген, Тони Уинли, Стив Чэсмэн, Сигурйон Сигватссон, Дэвид Уили
Оператор: Саймон Дагган
Композитор: Райнхольд Хайль, Джонни Клаймек
В ролях: Джейсон Стэтхэм, Клайв Оуэн, Роберт Де Ниро, Доминик Пурселл, Аден Янг, Ивонн Страховски, Бен Мендельсон, Адевале Акиннуойе-Агбадже, Дэвид Уайтели, Мэтью Нэйбл, Лейчи Халм, Фирасс Дирани
Описание: Бывшему бойцу британских силовых структур приходится забыть о тихой размеренной жизни отставника, когда его лучший друг оказывается в опасности.
Изображение 6.697 (4 910)
MPAA: Изображение
Релиз: Изображение Раздача группы: Изображение
Качество: DVD5 (сжатый)
Формат: DVD Video
Видео: MPEG2; PAL 16:9 (720x576)
Аудио #1: Dolby AC3, 6 ch, 448 Kbps Russian
Аудио #2: Dolby AC3, 2 ch, 224 Kbps English
Субтитры: русские
Дополнительная информация :
Исходник : DVD9 (7.12 Гб) [лицензия, PAL 16:9]
Убрано : допы, реклама, заставки, предупреждения
Сжатие фильма : 32.8 % сжатия (без учета ручного перераспределения битрейта, за счет большего сжатия конечных титров).
использовались программы
    DVDRemakePro
    Photoshop
    MuxMan
    Rebuilder и CCE (Cinema Craft Encoder), 5 проходов
    Работоспособность проверена на софтовом плеере Windows Media и бытовом LG
Свернуть
DVDInfo
    Title: Professional_2011_DVD5.[R.G.Daredevil]
    Size: 4.36 Gb ( 4 573 600,00 KBytes ) - DVD-5
    Enabled regions: 1, 2, 3, 4, 5, 6, 7, 8

    VTS_01 :
    Play Length: 00:00:00
    Video: PAL 4:3 (720x576) VBR
    Audio:
    Not specified (Dolby AC3, 2 ch)

    VTS_02 :
    Play Length: 00:00:00
    Video: PAL 16:9 (720x576) VBR, Auto Letterboxed
    Audio:
    Not specified (Dolby AC3, 2 ch)

    VTS_03 :
    Play Length: 00:00:00
    Video: PAL 16:9 (720x576) VBR, Auto Letterboxed
    Audio:
    Not specified (Dolby AC3, 2 ch)
    Not specified (Dolby AC3, 2 ch)

    VTS_04 :
    Play Length: 01:51:32
    Video: PAL 16:9 (720x576) VBR, Auto Letterboxed
    Audio:
    Russian (Dolby AC3, 6 ch)
    English (Dolby AC3, 2 ch)
    Subtitles:
    Russian

    VTS_05 :
    Play Length: 00:00:00
    Video: PAL 16:9 (720x576) VBR, Auto Letterboxed
    Audio:
    Not specified (Dolby AC3, 2 ch)

    VTS_06 :
    Play Length: 00:00:00
    Video: PAL 16:9 (720x576) VBR, Auto Letterboxed
    Audio:
    Not specified (Dolby AC3, 2 ch)

    VTS_07 :
    Play Length: 00:00:00
    Video: PAL 16:9 (720x576) VBR, Auto Letterboxed
    Audio:
    Not specified (Dolby AC3, 2 ch)

    VTS_08 :
    Play Length: 00:00:00
    Video: PAL 16:9 (720x576) VBR, Auto Letterboxed
    Audio:
    Not specified (Dolby AC3, 2 ch)

    VTS_09 :
    Play Length: 00:00:00
    Video: PAL 16:9 (720x576) VBR, Auto Letterboxed
    Audio:
    Not specified (Dolby AC3, 2 ch)

    VTS_10 :
    Play Length: 00:00:00
    Video: PAL 16:9 (720x576) VBR, Auto Letterboxed
    Audio:
    Not specified (Dolby AC3, 2 ch)
    Subtitles:
    Not specified

    VTS_11 :
    Play Length: 00:00:00
    Video: PAL 16:9 (720x576) VBR, Auto Letterboxed
    Audio:
    Not specified (Dolby AC3, 2 ch)

    VTS_12 :
    Play Length: 00:00:00
    Video: PAL 16:9 (720x576) VBR, Auto Letterboxed
    Audio:
    Not specified (Dolby AC3, 2 ch)

    VTS_13 :
    Play Length: 00:00:00
    Video: PAL 16:9 (720x576) VBR, Auto Letterboxed
    Audio:
    Not specified (Dolby AC3, 2 ch)

    VTS_14 :
    Play Length: 00:00:00
    Video: PAL 16:9 (720x576) VBR, Auto Letterboxed
    Audio:
    Not specified (Dolby AC3, 2 ch)

    VTS_15 :
    Play Length: 00:00:00
    Video: PAL 16:9 (720x576) VBR, Auto Letterboxed
    Audio:
    Not specified (Dolby AC3, 2 ch)

    VTS_16 :
    Play Length: 00:00:00
    Video: PAL 16:9 (720x576) VBR, Auto Letterboxed
    Audio:
    Not specified (Dolby AC3, 2 ch)

    VTS_17 :
    Play Length: 00:00:00
    Video: PAL 16:9 (720x576) VBR, Auto Letterboxed
    Audio:
    Not specified (Dolby AC3, 2 ch)
Свернуть
mediainfo
    Формат : MPEG-PS
    Размер файла : 1024 Мбайт
    Продолжительность : 24 м.
    Режим общего битрейта : Переменный
    Общий поток : 5738 Кбит/сек

    Видео
    Идентификатор : 224 (0xE0)
    Формат : MPEG Video
    Версия формата : Version 2
    Профиль формата : Main@Main
    Параметр BVOP формата : Да
    Параметр матрицы формата : Выборочная
    Продолжительность : 24 м.
    Вид битрейта : Переменный
    Битрейт : 4952 Кбит/сек
    Максимальный битрейт : 9000 Кбит/сек
    Ширина : 720 пикселей
    Высота : 576 пикселей
    Соотношение сторон : 16:9
    Частота кадров : 25,000 кадров/сек
    Стандарт вещания : PAL
    Цветовое пространство : YUV
    Субдискретизация насыщенности : 4:2:0
    Битовая глубина : 8 бит
    Тип развёртки : Прогрессивная
    Порядок развёртки : Нижнее поле первое
    Метод сжатия : С потерями
    Бит/(Пиксели*Кадры) : 0.478
    Размер потока : 884 Мбайт (86%)

    Аудио #1
    Идентификатор : 189 (0xBD)-128 (0x80)
    Формат : AC-3
    Формат/Информация : Audio Coding 3
    Расширение режима : CM (complete main)
    Режим смешивания : DVD-Video
    Продолжительность : 24 м.
    Вид битрейта : Постоянный
    Битрейт : 448 Кбит/сек
    Каналы : 6 каналов
    Расположение каналов : Front: L C R, Side: L R, LFE
    Частота : 48,0 КГц
    Битовая глубина : 16 бит
    Метод сжатия : С потерями
    Размер потока : 79,9 Мбайт (8%)

    Аудио #2
    Идентификатор : 189 (0xBD)-129 (0x81)
    Формат : AC-3
    Формат/Информация : Audio Coding 3
    Расширение режима : CM (complete main)
    Режим смешивания : DVD-Video
    Продолжительность : 24 м.
    Вид битрейта : Постоянный
    Битрейт : 224 Кбит/сек
    Каналы : 2 канала
    Расположение каналов : Front: L R
    Частота : 48,0 КГц
    Битовая глубина : 16 бит
    Метод сжатия : С потерями
    Размер потока : 40,0 Мбайт (4%)

    Текст #1
    Идентификатор : 189 (0xBD)-32 (0x20)
    Формат : RLE
    Формат/Информация : Run-length encoding
    Режим смешивания : DVD-Video

    Текст #2
    Идентификатор : 189 (0xBD)-33 (0x21)
    Формат : RLE
    Формат/Информация : Run-length encoding
    Режим смешивания : DVD-Video

    Меню

Свернуть
Скриншоты

меню
Изображение
Изображение
Изображение
Свернуть
Изображение
Изображение
Изображение
Изображение
Изображение
Свернуть
Не в сети
Профиль  
 Добавлено: 2011-12-20 17:50 (спустя 15 часов)
Аватара пользователя
Стаж: 8 лет 1 месяц
Сообщений: 121
Лайков: 2
:co_ol:
Не в сети
Профиль  
 Добавлено: 2011-12-20 20:07 (спустя 2 часа 16 минут)
Аватара пользователя
Стаж: 6 лет 6 месяцев
Возраст: 27
Сообщений: 4
Cкрытый текст
:-ok-:
Свернуть
Не в сети
Профиль  
 Добавлено: 2011-12-22 17:59 (спустя 1 день 21 час)
Аватара пользователя
Стаж: 7 лет 1 месяц
Сообщений: 60
я так понял фильм норм.....?
Не в сети
Профиль  
 Добавлено: 2011-12-24 16:38 (спустя 1 день 22 часа)
Кинокомментатор
Аватара пользователя
Стаж: 9 лет 1 месяц
Сообщений: 1332
Лайков: 54
так се кино... Стетхем) больше не крут)) скучно! ждал пока кончица... для 14 летних подростков:) не ну Стетхем конечно крут))) но действия в фильме мало) и всё как то наиграно;) 5/10
_________________
Я ВКонтакте
Не в сети
Профиль  
 Добавлено: 2011-12-26 18:19 (спустя 2 дня 1 час)
Стаж: 5 лет 3 месяца
Сообщений: 151
Лайков: 2
Фильм суперский!!!!!!!!!!!!!!!!!!!!
Не в сети
Профиль  
 Добавлено: 2011-12-29 20:00 (спустя 3 дня)
Стаж: 6 лет 1 месяц
Сообщений: 4
Bronks, какие же фильмы тебе нравятся?
Не в сети
Профиль  
 Добавлено: 2012-01-05 16:34 (спустя 6 дней)
Стаж: 5 лет 10 месяцев
Сообщений: 1
авпкнмитрлгомсппри
Не в сети
Профиль  
 Добавлено: 2012-02-22 23:48 (спустя 1 месяц 17 дней)
Аватара пользователя
Стаж: 6 лет 6 месяцев
Возраст: 104
Сообщений: 189
Спасибок: 136
askboy
спасибо за 5! заценим...

amischinov
за 1 год одно сообщение, и на каковском? :du_ma_et:
авпкнмитрлгомсппри
_________________
На раздачах с 21-00 до 9-00. В выхи круглосуточно. Скорость отдачи 50/100 мб/с д/н
Не в сети
Профиль  
Начать новую темуОтветить на тему  [ Сообщений: 9 ] 
Вы не можете начинать темы
Вы не можете отвечать на сообщения
Вы не можете редактировать свои сообщения
Вы не можете удалять свои сообщения