Правила форума

  • В этом разделе создание новых тем Запрещено.
  • Для создания новых тем пользуйтесь Корневым разделом DVD и HD фильмы.
Начать новую темуОтветить на тему  [ Сообщений: 5 ] 
Торрент файл
Размер: 4.37 GB • Зарегистрирован: 4 года 1 месяц • Статус: Проверено
Скачан: 84 раза • Желающих скачать: 0 • Поблагодарили: 18 раз
 Раздают: 0  |  0 KB/s  ]   Качают: 0  |  0 KB/s  ] 
 Полного источника не было 2 года 1 месяц 
Сообщения
 Добавлено: 2012-11-05 04:24
Руководитель релиз-группы
Аватара пользователя
Стаж: 7 лет 4 месяца
Возраст: 31
Сообщений: 3407
Спасибок: 46729
Лайков: 5
Изображение

Проклятье 3D
Sadako 3D


Год выпуска: 2012
Страна: Япония
Слоган: «Она вернулась»
Жанр: ужасы, триллер
Продолжительность: 01:32:13
Перевод: Профессиональный (полное дублирование)
Режиссер: Цутому Ханабуса
Сценарий: Ёсинобу Фуджиока, Цутому Ханабуса, Кодзи Судзуки
Продюсер: Ацуюки Шимода, Шиничиро Иноэ
Оператор: Нобусиге Фуджимото
Композитор: Кэндзи Кавай
В ролях: Сатоми Ишихара, Коджи Сето, Тсутому Такахаши, Шота Сомея, Хикари Такара, Юсуке Ямамото, Рёусеи Таяма, Аи Хашимото
Сборы в мире: $16 862 420
Описание: В школе для девочек ходят слухи, что в Интернет есть «проклятый» файл, в котором запечатлено самоубийство. Все, кто увидят это видео, убивают себя. Поначалу учительница не верит слухам, но когда одна из учениц кончает с собой, женщина решает разобраться. Отыскав в Интернете злополучный файл, она едва не погибает вместе со своим бойфрендом. Ей удается узнать, что файл пытается вызвать к жизни безумную Садако, чье проклятье распространялось через видеокассету в предыдущих фильмаx. И ему это удается. Героине предстоит финальная битва с Садако за свою жизнь и жизнь своего любимого.
Изображение
Релиз: Изображение Раздача группы: Изображение
Качество: DVD5 (сжатый)
Формат: DVD Video
Видео: MPEG2; PAL 16:9 (720x576)
Аудио: Dolby AC3, 6 ch, 448 Kbps Russian
Субтитры: нет
Дополнительная информация :
Исходник : DVD9 (6.05 Гб) [лицензия, PAL 16:9]
Убрано : заставки, предупреждения
Сжатие фильма : 30.7 % сжатия (без учета ручного перераспределения битрейта, за счет большего сжатия конечных титров)
использовались программы
    DVDRemakePro
    Rebuilder и CCE (Cinema Craft Encoder), 5 проходов
    Работоспособность проверена на софтовом плеере Windows Media и бытовом LG
Свернуть
DVDInfo
    Title: Proklyatie_2012_DVD5.[R.G.Daredevil]
    Size: 4.37 Gb ( 4 579 716,00 KBytes ) - DVD-5
    Enabled regions: 1, 2, 3, 4, 5, 6, 7, 8

    VTS_01 :
    Play Length: 01:32:13
    Video: PAL 16:9 (720x576) VBR, Auto Letterboxed
    Audio:
    Russian (Dolby AC3, 6 ch)
Свернуть
mediainfo
    Формат : MPEG-PS
    Размер файла : 1024 Мбайт
    Продолжительность : 59 с.
    Режим общего битрейта : Переменный
    Общий поток : 145 Мбит/сек

    Видео
    Идентификатор : 224 (0xE0)
    Формат : MPEG Video
    Версия формата : Version 2
    Профиль формата : Main@Main
    Параметр BVOP формата : Да
    Параметр матрицы формата : Выборочная
    Продолжительность : 59 с.
    Вид битрейта : Переменный
    Битрейт : 142 Мбит/сек
    Максимальный битрейт : 9000 Кбит/сек
    Ширина : 720 пикселей
    Высота : 576 пикселей
    Соотношение сторон : 16:9
    Частота кадров : 25,000 кадров/сек
    Стандарт вещания : PAL
    Цветовое пространство : YUV
    Субдискретизация насыщенности : 4:2:0
    Битовая глубина : 8 бит
    Тип развёртки : Чересстрочная
    Порядок развёртки : Верхнее поле первое
    Метод сжатия : С потерями
    Бит/(Пиксели*Кадры) : 13.710
    Размер потока : 1000 Мбайт (98%)

    Аудио
    Идентификатор : 189 (0xBD)-128 (0x80)
    Формат : AC-3
    Формат/Информация : Audio Coding 3
    Расширение режима : CM (complete main)
    Режим смешивания : DVD-Video
    Продолжительность : 58 с.
    Вид битрейта : Постоянный
    Битрейт : 448 Кбит/сек
    Каналы : 6 каналов
    Расположение каналов : Front: L C R, Side: L R, LFE
    Частота : 48,0 КГц
    Битовая глубина : 16 бит
    Метод сжатия : С потерями
    Размер потока : 3,14 Мбайт (0%)

    Меню
Свернуть
Скриншоты

меню
Изображение

Изображение
Свернуть
Изображение

Изображение

Изображение

Изображение
Свернуть
Не в сети
Профиль  
 Добавлено: 2012-11-08 19:47 (спустя 3 дня)
Стаж: 8 лет 7 месяцев
Сообщений: 11
а почему морды вытянуты? или скрины такие?
Не в сети
Профиль  
 Добавлено: 2012-11-15 21:36 (спустя 7 дней)
Аватара пользователя
Стаж: 6 лет 3 месяца
Сообщений: 19
как фильм стоит смотреть?
Не в сети
Профиль  
 Добавлено: 2012-11-17 14:32 (спустя 1 день 16 часов)
Аватара пользователя
Стаж: 9 лет
Сообщений: 33
Спасибок: 325
точно не Звонок? :ne_ne:
Не в сети
Профиль  
 Добавлено: 2012-12-08 21:41 (спустя 21 день)
Аватара пользователя
Стаж: 9 лет 1 месяц
Возраст: 31
Сообщений: 982
Спасибок: 1800
Лайков: 17
Звонок и Проклятье совершенно разные фильмы. Это якобы продолжение фильмом Такеши Шимитцу, но на деле - днище ёбано.
Не в сети
Профиль  
Начать новую темуОтветить на тему  [ Сообщений: 5 ] 
Вы не можете начинать темы
Вы не можете отвечать на сообщения
Вы не можете редактировать свои сообщения
Вы не можете удалять свои сообщения