Правила форума

  • В этом разделе создание новых тем Запрещено.
  • Для создания новых тем пользуйтесь Корневым разделом DVD и HD фильмы.
Начать новую темуОтветить на тему  [ 1 сообщение ] 
Торрент файл
Размер: 6.05 GB • Зарегистрирован: 4 года 1 месяц • Статус: Проверено
Скачан: 35 раз • Желающих скачать: 0 • Поблагодарили: 9 раз
 Раздают: 0  |  0 KB/s  ]   Качают: 0  |  0 KB/s  ] 
 Полного источника не было 3 года 2 месяца 
Сообщения
 Добавлено: 2012-11-02 22:43
Аватара пользователя
Стаж: 5 лет 5 месяцев
Возраст: 30
Сообщений: 353
Спасибок: 7455
Проклятье 3D / Sadako 3D

Изображение


Год выпуска: 2012
Страна: Япония (Kadokawa Pictures, Kansai Telecasting (KTV), Shizuoka Telecasting, Tohokushinsha Film Corporation, Tokai Television Broadcast Company)
Слоган: «Она вернулась»
Жанр: ужасы, триллер
Продолжительность: 01:32:13
Перевод: Профессиональный (дубляж)
Дублеры: Александр Гаврилин, Владимир Рыбальченко
Субтитры: Нет

Режиссёр: Цутому Ханабуса / Tsutomu Hanabusa
Сценарист: Ёсинобу Фуджиока, Цутому Ханабуса, Кодзи Судзуки
Продюсер: Ацуюки Шимода, Шиничиро Иноэ
Оператор: Нобусиге Фуджимото
Композитор: Кэндзи Кавай
В ролях: Сатоми Ишихара, Коджи Сето, Тсутому Такахаши, Шота Сомея, Хикари Такара, Юсуке Ямамото, Рёусеи Таяма, Аи Хашимото

Описание: В школе для девочек ходят слухи, что в Интернет есть «проклятый» файл, в котором запечатлено самоубийство. Все, кто увидят это видео, убивают себя. Поначалу учительница не верит слухам, но когда одна из учениц кончает с собой, женщина решает разобраться. Отыскав в Интернете злополучный файл, она едва не погибает вместе со своим бойфрендом. Ей удается узнать, что файл пытается вызвать к жизни безумную Садако, чье проклятье распространялось через видеокассету в предыдущих фильмаx. И ему это удается. Героине предстоит финальная битва с Садако за свою жизнь и жизнь своего любимого.

Доп.информация: нет
Рейтинг MPAA: Рейтинг R (Подростки до 17 лет допускаются на фильм только в сопровождении одного из родителей)
Мировая премьера: 12 мая 2012
Премьера в России: 2 августа 2012, «Каравелла DDC» 3D
Кассовые сборы: $16 862 420

Изображение Изображение Изображение


Качество: DVD9 R5
Формат: DVD Video
Видео кодек: MPEG2
Аудио кодек: AC3 (Dolby Digital)
Видео: PAL 16:9 (720x576(0.831)) MPEG Video, 25,000 кадр/сек, 8620 Кбит/сек
Аудио #1: Russian (Dolby AC3, 6 ch) 448 Кбит/сек, 48,0 КГц [Профессиональный (дубляж)]
Субтитры: Нет

"DVDInfo"
Title: Proklyate.2012.DVD9
Size: 6.05 Gb ( 6 343 846,00 KBytes ) - DVD-9
Enabled regions: 1, 2, 3, 4, 5, 6, 7, 8

VTS_01 :
Play Length: 01:32:13
Video: PAL 16:9 (720x576) VBR, Auto Letterboxed
Audio:
Russian (Dolby AC3, 6 ch)

* Menus Information *

VIDEO_TS Menu
Video:
PAL 16:9 (720x576) VBR
Auto Letterboxed
Audio:
Not specified (Dolby AC3, 2 ch)
Russian Language Unit :
Title Menu

VTS_01 Menu
Video:
PAL 16:9 (720x576) VBR
Auto Letterboxed
Audio:
Not specified (Dolby AC3, 2 ch)
Russian Language Unit :
Root Menu
Свернуть

"MediaInfo"
Общее
Полное имя : J:\Новинки 2012\Proklyate.2012.DVD9\VIDEO_TS\VTS_01_1.VOB
Формат : MPEG-PS
Размер файла : 1024 Мбайт
Продолжительность : 15 м.
Режим общего битрейта : Переменный
Общий поток : 9252 Кбит/сек

Видео
Идентификатор : 224 (0xE0)
Формат : MPEG Video
Версия формата : Version 2
Профиль формата : Main@Main
Параметр BVOP формата : Да
Параметр матрицы формата : Выборочная
Параметр GOP формата : M=3, N=15
Продолжительность : 15 м.
Вид битрейта : Переменный
Битрейт : 8620 Кбит/сек
Максимальный битрейт : 9000 Кбит/сек
Ширина : 720 пикселей
Высота : 576 пикселей
Соотношение сторон : 16:9
Частота кадров : 25,000 кадров/сек
Стандарт вещания : PAL
Цветовое пространство : YUV
Субдискретизация насыщенности : 4:2:0
Битовая глубина : 8 бит
Тип развёртки : Чересстрочная
Порядок развёртки : Верхнее поле первое
Метод сжатия : С потерями
Бит/(Пиксели*Кадры) : 0.831
Размер потока : 954 Мбайт (93%)

Аудио
Идентификатор : 189 (0xBD)-128 (0x80)
Формат : AC-3
Формат/Информация : Audio Coding 3
Расширение режима : CM (complete main)
Параметр Endianness формата : Big
Режим смешивания : DVD-Video
Продолжительность : 15 м.
Вид битрейта : Постоянный
Битрейт : 448 Кбит/сек
Каналы : 6 каналов
Расположение каналов : Front: L C R, Side: L R, LFE
Частота : 48,0 КГц
Битовая глубина : 16 бит
Метод сжатия : С потерями
Размер потока : 49,6 Мбайт (5%)

Свернуть

Скриншоты
Скриншоты меню
Изображение
Изображение
Свернуть
Изображение
Изображение
Изображение
Изображение
Изображение
Изображение
Изображение
Изображение
Изображение
Изображение
Свернуть

ИзображениеИзображение
Не в сети
Профиль  
Начать новую темуОтветить на тему  [ 1 сообщение ] 
Вы не можете начинать темы
Вы не можете отвечать на сообщения
Вы не можете редактировать свои сообщения
Вы не можете удалять свои сообщения