Правила форума

  • В этом разделе создание новых тем Запрещено.
  • Для создания новых тем пользуйтесь Корневым разделом DVD и HD фильмы.
Начать новую темуОтветить на тему  [ 1 сообщение ] 
Торрент файл
Размер: 4.08 GB • Зарегистрирован: 4 года 2 месяца • Статус: Проверено
Скачан: 73 раза • Желающих скачать: 0 • Поблагодарили: 20 раз
 Раздают: 0  |  0 KB/s  ]   Качают: 0  |  0 KB/s  ] 
 Полного источника не было 2 года 10 месяцев 
Сообщения
 Добавлено: 2012-10-04 10:20
Аватара пользователя
Стаж: 5 лет 5 месяцев
Возраст: 30
Сообщений: 353
Спасибок: 7455
Прощай, моя королева / Les adieux a la reine

Изображение


Год выпуска: 2012
Страна: Франция, Испания (Canal+ [fr], Ciné, Euro Media France, France 3 Cinéma, France Télévision, G.M.T. Productions, Invest Image, La Banque Postale Images 5, Les Films du Lendemain, Morena Films S.L., Palatine Étoile 9, Région Ile-de-France, Soficinéma 7)
Жанр: драма, история
Продолжительность: 01:35:21
Перевод: Профессиональный (многоголосый закадровый)
Субтитры: Нет

Режиссёр: Бенуа Жако / Benoît Jacquot
Сценарист: Бенуа Жако, Жиль Торан, Шанталь Тома
Продюсер: Жан-Пьер Герен, Кристина Ларсен, Педро Уриоль
Оператор: Ромен Виндинг
Композитор: Бруно Куле
В ролях: Дайан Крюгер, Леа Сейду, Виржини Ледуайен, Ксавье Бовуа, Ноэми Львовски, Мишель Робен, Жюли-Мари Парментье, Лолита Шамма, Владимир Консиньи, Доминик Реймон

Описание: 14 июля 1789 года толпы восставших взяли Бастилию, но блестящий Версаль еще пытался отстоять свое королевское великолепие на пути урагана…
Экранизация одноименного романа Шанталь Тома, написанного в форме воспоминаний Сидони Лаборде — придворной чтицы Марии-Антуанетты о 14, 15 и 16 июля 1789 года. О тех днях, когда была разрушена Бастилия и учреждена Национальная гвардия, когда началась кровавая революция и залы роскошного дворца опустели, когда свита и слуги оставили свою Королеву. Спустя 21 год, уже в Вене Агата Сидони Лаборде оглядывается назад и вспоминает…

Доп.информация: нет
Рейтинг MPAA: Рейтинг R (Подростки до 17 лет допускаются на фильм только в сопровождении одного из родителей)
Мировая премьера: 9 февраля 2012
Премьера в России: 16 августа 2012, «Top Film Distribution»
Бюджет: €7 500 000
Кассовые сборы: $1 329 660

Изображение Изображение Изображение


Качество: DVD5 R5
Формат: DVD Video
Видео кодек: MPEG2
Аудио кодек: AC3 (Dolby Digital)
Видео: PAL 16:9 (720x576(0.570)) MPEG Video, 25,000 кадр/сек, 5906 Кбит/сек
Аудио #1: Russian (Dolby AC3, 6 ch) 384 Кбит/сек, 48,0 КГц [Профессиональный (многоголосый закадровый)]
Субтитры: Нет

"DVDInfo"
Title: Proshhyaj.Moya.koroleva.2012.DVD5
Size: 4.08 Gb ( 4 283 096,00 KBytes ) - DVD-5
Enabled regions: 1, 2, 3, 4, 5, 6, 7, 8

VTS_01 :
Play Length: 01:35:21
Video: PAL 16:9 (720x576) VBR, Auto Letterboxed
Audio:
Russian (Dolby AC3, 6 ch)

VTS_02 :
Play Length: 00:00:15
Video: PAL 16:9 (720x576) VBR, Auto Letterboxed
Audio:
English (Dolby AC3, 2 ch)

VTS_03 :
Play Length: 00:00:08
Video: PAL 4:3 (720x576) VBR

VTS_04 :
Play Length: 00:00:05
Video: PAL 16:9 (720x576) VBR, Auto Letterboxed

* Menus Information *

VIDEO_TS Menu
Video:
NTSC 4:3 (720x480) VBR
Auto Pan&Scan, Auto Letterboxed
Russian Language Unit :
Title Menu

VTS_01 Menu
Video:
PAL 16:9 (720x576) VBR
Auto Letterboxed
Audio:
Not specified (Dolby AC3, 2 ch)
Russian Language Unit :
Root Menu
Chapter (PTT) Menu

VTS_02 Menu
Video:
NTSC 4:3 (720x480) VBR
Auto Pan&Scan, Auto Letterboxed
Language Unit :
Chapter (PTT) Menu

VTS_03 Menu
Video:
NTSC 4:3 (720x480) VBR
Auto Pan&Scan, Auto Letterboxed
Language Unit :
Chapter (PTT) Menu

VTS_04 Menu
Video:
NTSC 4:3 (720x480) VBR
Auto Pan&Scan, Auto Letterboxed
Language Unit :
Chapter (PTT) Menu
Свернуть

"MediaInfo"
Общее
Полное имя : J:\Новинки 2012\Proshhyaj.Moya.koroleva.2012.DVD5\VIDEO_TS\VTS_01_1.VOB
Формат : MPEG-PS
Размер файла : 1024 Мбайт
Продолжительность : 22 м.
Режим общего битрейта : Переменный
Общий поток : 6417 Кбит/сек

Видео
Идентификатор : 224 (0xE0)
Формат : MPEG Video
Версия формата : Version 2
Профиль формата : Main@Main
Параметр BVOP формата : Да
Параметр матрицы формата : Выборочная
Продолжительность : 22 м.
Вид битрейта : Переменный
Битрейт : 5906 Кбит/сек
Максимальный битрейт : 8000 Кбит/сек
Ширина : 720 пикселей
Высота : 576 пикселей
Соотношение сторон : 16:9
Частота кадров : 25,000 кадров/сек
Стандарт вещания : PAL
Цветовое пространство : YUV
Субдискретизация насыщенности : 4:2:0
Битовая глубина : 8 бит
Тип развёртки : Чересстрочная
Порядок развёртки : Верхнее поле первое
Метод сжатия : С потерями
Бит/(Пиксели*Кадры) : 0.570
Размер потока : 942 Мбайт (92%)

Аудио
Идентификатор : 189 (0xBD)-128 (0x80)
Формат : AC-3
Формат/Информация : Audio Coding 3
Расширение режима : CM (complete main)
Параметр Endianness формата : Big
Режим смешивания : DVD-Video
Продолжительность : 22 м.
Вид битрейта : Постоянный
Битрейт : 384 Кбит/сек
Каналы : 6 каналов
Расположение каналов : Front: L C R, Side: L R, LFE
Частота : 48,0 КГц
Битовая глубина : 16 бит
Метод сжатия : С потерями
Размер потока : 61,3 Мбайт (6%)

Свернуть


Скриншоты
Скриншоты меню
Изображение
Изображение
Свернуть
Изображение
Изображение
Изображение
Изображение
Изображение
Изображение
Изображение
Изображение
Изображение
Изображение
Свернуть

Знаете ли Вы, что...
Первоначально на роль Марии-Антуанетты была утверждена Ева Грин, но затем заменена на Дайан Крюгер.
Основой для фильма послужила вышедшая в 2002 году одноимённая книга французской писательницы Шанталь Тома.
Свернуть
Изображение
Не в сети
Профиль  
Начать новую темуОтветить на тему  [ 1 сообщение ] 
Вы не можете начинать темы
Вы не можете отвечать на сообщения
Вы не можете редактировать свои сообщения
Вы не можете удалять свои сообщения