Правила форума

  • В этом разделе создание новых тем Запрещено.
  • Для создания новых тем пользуйтесь Корневым разделом DVD и HD фильмы.
Начать новую темуОтветить на тему  [ Сообщений: 5 ] 
Торрент файл
Размер: 4.37 GB • Зарегистрирован: 4 года 6 месяцев • Статус: Проверено
Скачан: 400 раз • Желающих скачать: 0 • Поблагодарили: 62 раза
 Раздают: 0  |  0 KB/s  ]   Качают: 0  |  0 KB/s  ] 
 Полного источника не было 3 месяца 23 дня 
Сообщения
 Добавлено: 2012-05-22 20:45
Руководитель релиз-группы
Аватара пользователя
Стаж: 7 лет 4 месяца
Возраст: 31
Сообщений: 3407
Спасибок: 46729
Лайков: 5
Изображение

Путешествие 2: Таинственный остров
Journey 2: The Mysterious Island


Год выпуска: 2012
Страна: США
Слоган: «Поверь в невозможное - открой невероятное!»
Жанр: фантастика, фэнтези, боевик, комедия, приключения, семейный
Продолжительность: 01:30:19
Перевод: Профессиональный (полное дублирование)
Режиссер: Брэд Пейтон
Сценарий: Брайан Ганн, Марк Ганн, Ричард Ауттен
Продюсер: Бо Флинн, Шарлотта Клэй Хаггинс, Трип Винсон
Оператор: Дэвид Тэттерсолл
Композитор: Эндрю Локингтон
В ролях: Дуэйн Джонсон, Майкл Кейн, Джош Хатчерсон, Ванесса Энн Хадженс, Луис Гузман, Кристин Дэвис, Анна Колвелл, Стивен Кодилл, Брэнском Ричмонд, Уолтер Бэнксон
Бюджет: $79 000 000
Сборы в мире: $322 859 615
Описание: На этот раз Шон Андерсон получает закодированный сигнал с просьбой о помощи, причем с загадочного острова, из места, где никакого острова и быть не может. Там обитают странные формы жизни, скрываются горы золота, смертоносные вулканы и не одна ошеломляющая тайна. Отчиму Шона, не сумевшему остановить его, ничего не остается, как тоже присоединиться к поискам. Вместе с пилотом вертолета и его прекрасной и решительной дочерью им предстоит найти остров, спасти его одинокого обитателя и немедленно покинуть это место, прежде чем землетрясение скроет остров под водой и похоронит навеки его сокровища.
Изображение
MPAA: Изображение
Релиз: Изображение Раздача группы: Изображение
Качество: DVD5 (сжатый)
Формат: DVD Video
Видео: MPEG2; PAL 16:9 (720x576)
Аудио #1: Dolby AC3, 6 ch, 384 Kbps Russian
Аудио #2: Dolby AC3, 6 ch, 384 Kbps English
Субтитры: русские, английские, украинские
Дополнительная информация :
Исходник : DVD9 (4.72 Гб) [лицензия, PAL 16:9]
Убрано : часть допов, Ukrainian (Dolby AC3, 6 ch)
Сжатие фильма : нет
Изображение
использовались программы
    DVDRemakePro
    Photoshop
    MuxMan
    Работоспособность проверена на софтовом плеере Windows Media и бытовом LG
Свернуть
DVDInfo
    Title: Puteshestvie.2.tainstvenniy.ostrov_2012_DVD5.[R.G.Daredevil]
    Size: 4.37 Gb ( 4 582 434,00 KBytes ) - DVD-5
    Enabled regions: 1, 2, 3, 4, 5, 6, 7, 8

    VTS_01 :
    Play Length: 01:30:19+00:00:00+00:01:10+00:02:24
    Video: PAL 16:9 (720x576) VBR, Auto Letterboxed
    Audio:
    English (Dolby AC3, 6 ch)
    Russian (Dolby AC3, 6 ch)
    Ukrainian (Dolby AC3, 6 ch)
    English (Dolby AC3, 2 ch)
    Subtitles:
    English
    Russian
    Ukrainian
    Russian
    Ukrainian

    VTS_02 :
    Play Length: 00:00:10+00:00:12
    Video: PAL 16:9 (720x576) VBR, Auto Letterboxed
    Audio:
    Not specified (Dolby AC3, 6 ch)
    Subtitles:
    Not specified
Свернуть
mediainfo
    Формат : MPEG-PS
    Размер файла : 1024 Мбайт
    Продолжительность : 22 м.
    Режим общего битрейта : Переменный
    Общий поток : 6393 Кбит/сек

    Видео
    Идентификатор : 224 (0xE0)
    Формат : MPEG Video
    Версия формата : Version 2
    Профиль формата : Main@Main
    Параметр BVOP формата : Да
    Параметр матрицы формата : Выборочная
    Параметр GOP формата : M=2, N=12
    Продолжительность : 22 м.
    Вид битрейта : Переменный
    Битрейт : 5497 Кбит/сек
    Максимальный битрейт : 7500 Кбит/сек
    Ширина : 720 пикселей
    Высота : 576 пикселей
    Соотношение сторон : 16:9
    Частота кадров : 25,000 кадров/сек
    Стандарт вещания : PAL
    Цветовое пространство : YUV
    Субдискретизация насыщенности : 4:2:0
    Битовая глубина : 8 бит
    Тип развёртки : Чересстрочная
    Порядок развёртки : Верхнее поле первое
    Метод сжатия : С потерями
    Бит/(Пиксели*Кадры) : 0.530
    Размер потока : 881 Мбайт (86%)

    Аудио #1
    Идентификатор : 189 (0xBD)-128 (0x80)
    Формат : AC-3
    Формат/Информация : Audio Coding 3
    Расширение режима : CM (complete main)
    Режим смешивания : DVD-Video
    Продолжительность : 22 м.
    Вид битрейта : Постоянный
    Битрейт : 384 Кбит/сек
    Каналы : 6 каналов
    Расположение каналов : Front: L C R, Side: L R, LFE
    Частота : 48,0 КГц
    Битовая глубина : 16 бит
    Метод сжатия : С потерями
    Размер потока : 61,5 Мбайт (6%)

    Аудио #2
    Идентификатор : 189 (0xBD)-129 (0x81)
    Формат : AC-3
    Формат/Информация : Audio Coding 3
    Расширение режима : CM (complete main)
    Режим смешивания : DVD-Video
    Продолжительность : 22 м.
    Вид битрейта : Постоянный
    Битрейт : 384 Кбит/сек
    Каналы : 6 каналов
    Расположение каналов : Front: L C R, Side: L R, LFE
    Частота : 48,0 КГц
    Битовая глубина : 16 бит
    Метод сжатия : С потерями
    Размер потока : 61,5 Мбайт (6%)

    Текст
    Идентификатор : 189 (0xBD)-32 (0x20)
    Формат : RLE
    Формат/Информация : Run-length encoding
    Режим смешивания : DVD-Video

    Меню
Свернуть
Знаете ли Вы, что...
  • Съёмки фильма проходили на острове Оаху и в Уилмингтоне.
Свернуть
Скриншоты

меню
Изображение
Изображение
Изображение
Изображение
Свернуть
Изображение
Изображение
Изображение
Свернуть
Не в сети
Профиль  
 Добавлено: 2012-05-23 00:20 (спустя 3 часа)
Аватара пользователя
Стаж: 5 лет 2 месяца
Возраст: 34
Сообщений: 1278
Лайков: 20
:men: :co_ol:
Не в сети
Профиль  
 Добавлено: 2012-05-23 19:39 (спустя 19 часов)
Кинокомментатор
Аватара пользователя
Стаж: 9 лет 1 месяц
Сообщений: 1332
Лайков: 54
ну на самом деле обычное кино, для младшего школьного возраста, где есть какие то интересные научные мелочи) но где врут по крупному!) это наверное и называется сказка:)
ну так) посмотрел) не отложилось) забуду скоро:)
но для семейного просмотра вполне ничего) Жуля Верна много конечно))
в общем 6/10
_________________
Я ВКонтакте
Не в сети
Профиль  
 Добавлено: 2012-05-24 09:17 (спустя 13 часов)
Аватара пользователя
Стаж: 4 года 6 месяцев
Сообщений: 4
Спасибо!
Не в сети
Профиль  
 Добавлено: 2012-06-24 02:07 (спустя 30 дней)
Аватара пользователя
Стаж: 5 лет 2 месяца
Возраст: 34
Сообщений: 1278
Лайков: 20
на диск закатал
Не в сети
Профиль  
Начать новую темуОтветить на тему  [ Сообщений: 5 ] 
Вы не можете начинать темы
Вы не можете отвечать на сообщения
Вы не можете редактировать свои сообщения
Вы не можете удалять свои сообщения