Правила форума

  • В этом разделе создание новых тем Запрещено.
  • Для создания новых тем пользуйтесь Корневым разделом DVD и HD фильмы.
Начать новую темуОтветить на тему  [ 1 сообщение ] 
Торрент файл
Размер: 6.24 GB • Зарегистрирован: 5 лет 1 месяц • Статус: Проверено
Скачан: 56 раз • Желающих скачать: 0 • Поблагодарили: 10 раз
 Раздают: 0  |  0 KB/s  ]   Качают: 0  |  0 KB/s  ] 
 Полного источника не было 3 года 2 месяца 
Сообщения
 Добавлено: 2011-10-12 22:23
Аватара пользователя
Стаж: 5 лет 5 месяцев
Возраст: 30
Сообщений: 353
Спасибок: 7455
Расплата / Кровь / Blood Out

Изображение


Год выпуска: 2011
Страна: США
Слоган: «Без жалости, без прикрытия...»
Жанр: боевик
Продолжительность: 01:24:59
Перевод: Профессиональный (многоголосый закадровый) + Профессиональный (многоголосый закадровый) + Оригинальная звуковая дорожка
Субтитры: Украинские

Режиссёр: Джейсон Хьюит / Jason Hewitt
Сценарист: Джейсон Хьюит, Джон О’Коннелл
Продюсер: Джейсон Хьюит, Карстен Х.В. Лоренц, Майкл Арата
Оператор: Кристиан Херрера
Композитор: Джёрмэйн Стеголл

В ролях: Люк Госс, Вэл Килмер, Фифти Сент, Винни Джонс, Тэмер Хассан, АннаЛинн МакКорд, Эд Куинн, Райан Доноху, Стефани Онор, Сэм Медина

Описание: Помощнику шерифа Майклу Сэвиону не раз доводилось участвовать в опасных рейдах и проливать чужую кровь. Но однажды главари одной из местных банд жестоко убивают его брата. Когда равнодушные следователи объявляют дело закрытым за недостатком улик, Майкл решает восстановить справедливость самостоятельно. Его задача — не только покарать всех виновных в смерти брата, но и найти невесту погибшего, исчезнувшую в лабиринте темных улиц, где царят насилие и беспредел. Родная кровь взывает к мести, и от расплаты не уйти никому!

Доп.информация: Смотрите на DVD
Рейтинг MPAA: Рейтинг R (Подростки до 17 лет допускаются на фильм только в сопровождении одного из родителей)
Мировая премьера: 26 апреля 2011

Изображение Изображение Изображение


Качество: DVD9 R5
Формат: DVD Video
Видео кодек: MPEG2
Аудио кодек: AC3 + DTS
Видео: PAL 16:9 (720x576(0.750)) MPEG Video, 25,000 кадр/сек, 7775 Кбит/сек
Аудио #1: Russian (Dolby AC3, 6 ch) 256 Кбит/сек, 48,0 КГц [Профессиональный (многоголосый закадровый)]
Аудио #2: Russian (DTS, 6 ch) 768 Кбит/сек, 48,0 КГц [Профессиональный (многоголосый закадровый)]
Аудио #3: English (Dolby AC3, 6 ch) 256 Кбит/сек, 48,0 КГц [Оригинальная звуковая дорожка]
Субтитры: Украинские

"DVDInfo"
Title: F
Size: 6.24 Gb ( 6 540 402 KBytes ) - DVD-9
Enabled regions: 1, 2, 3, 4, 5, 6, 7, 8

VTS_01 :
Play Length: 00:00:10
Video: PAL 16:9 (720x576) VBR, Auto Letterboxed

VTS_02 :
Play Length: 01:24:59
Video: PAL 16:9 (720x576) VBR, Auto Letterboxed
Audio:
Russian (Dolby AC3, 6 ch)
Russian (DTS, 6 ch)
English (Dolby AC3, 6 ch)
Subtitles:
Ukrainian

VTS_03 :
Play Length: 00:02:50
Video: PAL 16:9 (720x576) VBR, Auto Letterboxed
Audio:
Russian (Dolby AC3, 2 ch)
Russian (Dolby AC3, 2 ch)
English (Dolby AC3, 2 ch)
Subtitles:
Ukrainian

VTS_04 :
Play Length: 00:01:44
Video: PAL 16:9 (720x576) VBR, Auto Letterboxed
Audio:
Russian (Dolby AC3, 2 ch)
Russian (Dolby AC3, 2 ch)
English (Dolby AC3, 2 ch)
Subtitles:
Ukrainian

VTS_05 :
Play Length: 00:01:54
Video: PAL 16:9 (720x576) VBR, Auto Letterboxed
Audio:
Russian (Dolby AC3, 2 ch)
Russian (Dolby AC3, 2 ch)
English (Dolby AC3, 2 ch)
Subtitles:
Ukrainian

VTS_06 :
Play Length: 00:02:01
Video: PAL 16:9 (720x576) VBR, Auto Letterboxed
Audio:
Russian (Dolby AC3, 2 ch)
Russian (Dolby AC3, 2 ch)
English (Dolby AC3, 2 ch)
Subtitles:
Ukrainian

VTS_07 :
Play Length: 00:01:45
Video: PAL 16:9 (720x576) VBR, Auto Letterboxed
Audio:
Russian (Dolby AC3, 2 ch)
Russian (Dolby AC3, 2 ch)
English (Dolby AC3, 2 ch)
Subtitles:
Ukrainian

VTS_08 :
Play Length: 00:01:44
Video: PAL 16:9 (720x576) VBR, Auto Letterboxed
Audio:
Russian (Dolby AC3, 2 ch)
Russian (Dolby AC3, 2 ch)
English (Dolby AC3, 2 ch)
Subtitles:
Ukrainian

VTS_09 :
Play Length: 00:01:52
Video: PAL 16:9 (720x576) VBR, Auto Letterboxed
Audio:
Russian (Dolby AC3, 2 ch)
Russian (Dolby AC3, 2 ch)
English (Dolby AC3, 2 ch)
Subtitles:
Ukrainian

VTS_10 :
Play Length: 00:02:07
Video: PAL 16:9 (720x576) VBR, Auto Letterboxed
Audio:
Russian (Dolby AC3, 2 ch)
Russian (Dolby AC3, 2 ch)
English (Dolby AC3, 2 ch)
Subtitles:
Ukrainian

Свернуть

"MediaInfo"
Общее
Полное имя : G:\Новинки 2011\Rasplata.2011.DVD9\VIDEO_TS\VTS_02_1.VOB
Формат : MPEG-PS
Размер файла : 1024 Мбайт
Продолжительность : 15 м.
Общий поток : 9225 Кбит/сек

Видео
Идентификатор : 224 (0xE0)
Формат : MPEG Video
Версия формата : Version 2
Профиль формата : Main@Main
Параметр BVOP формата : Да
Параметр матрицы формата : Выборочная
Продолжительность : 15 м.
Вид битрейта : Переменный
Битрейт : 7775 Кбит/сек
Максимальный битрейт : 8300 Кбит/сек
Ширина : 720 пикселей
Высота : 576 пикселей
Соотношение сторон : 16:9
Частота кадров : 25,000 кадров/сек
Стандарт вещания : PAL
Цветовое пространство : YUV
Субдискретизация насыщенности : 4:2:0
Битовая глубина : 8 бит
Тип развёртки : Чересстрочная
Порядок развёртки : Верхнее поле первое
Метод сжатия : С потерями
Бит/(Пиксели*Кадры) : 0.750
Размер потока : 863 Мбайт (84%)

Аудио #1
Идентификатор : 189 (0xBD)-128 (0x80)
Формат : AC-3
Формат/Информация : Audio Coding 3
Расширение режима : CM (complete main)
Режим смешивания : DVD-Video
Продолжительность : 15 м.
Вид битрейта : Постоянный
Битрейт : 256 Кбит/сек
Каналы : 6 каналов
Расположение каналов : Front: L C R, Side: L R, LFE
Частота : 48,0 КГц
Битовая глубина : 16 бит
Метод сжатия : С потерями
Размер потока : 28,4 Мбайт (3%)

Аудио #2
Идентификатор : 189 (0xBD)-130 (0x82)
Формат : AC-3
Формат/Информация : Audio Coding 3
Расширение режима : CM (complete main)
Режим смешивания : DVD-Video
Продолжительность : 15 м.
Вид битрейта : Постоянный
Битрейт : 256 Кбит/сек
Каналы : 6 каналов
Расположение каналов : Front: L C R, Side: L R, LFE
Частота : 48,0 КГц
Битовая глубина : 16 бит
Метод сжатия : С потерями
Размер потока : 28,4 Мбайт (3%)

Аудио #3
Идентификатор : 189 (0xBD)-137 (0x89)
Формат : DTS
Формат/Информация : Digital Theater Systems
Режим смешивания : DVD-Video
Продолжительность : 15 м.
Вид битрейта : Постоянный
Битрейт : 755 Кбит/сек
Каналы : 6 каналов
Расположение каналов : Front: L C R, Side: L R, LFE
Частота : 48,0 КГц
Битовая глубина : 16 бит
Метод сжатия : С потерями
Размер потока : 83,7 Мбайт (8%)

Текст
Идентификатор : 189 (0xBD)-32 (0x20)
Формат : RLE
Формат/Информация : Run-length encoding
Режим смешивания : DVD-Video
Свернуть

Скриншоты
Скриншоты меню
Изображение
Изображение
Изображение
Изображение
Свернуть
Изображение
Изображение
Изображение
Изображение
Изображение
Изображение
Изображение
Изображение
Свернуть

Изображение Изображение
Не в сети
Профиль  
Начать новую темуОтветить на тему  [ 1 сообщение ] 
Вы не можете начинать темы
Вы не можете отвечать на сообщения
Вы не можете редактировать свои сообщения
Вы не можете удалять свои сообщения