Правила форума

  • В этом разделе создание новых тем Запрещено.
  • Для создания новых тем пользуйтесь Корневым разделом DVD и HD фильмы.
Начать новую темуОтветить на тему  [ Сообщений: 2 ] 
Торрент файл
Размер: 4.37 GB • Зарегистрирован: 5 лет 4 месяца • Статус: Проверено
Скачан: 64 раза • Желающих скачать: 0 • Поблагодарили: 11 раз
 Раздают: 0  |  0 KB/s  ]   Качают: 0  |  0 KB/s  ] 
 Полного источника не было 3 года 2 месяца 
Сообщения
 Добавлено: 2011-07-14 18:20
Модератор
Аватара пользователя
Стаж: 8 лет 1 месяц
Возраст: 20
Сообщений: 32130
Спасибок: 98568
Лайков: 80
Изображение

Реквием по убийце / Requiem pour une tueuse


Год выпуска: 2011
Страна: Франция
Слоган: «Игра со множеством неизвестных»

Жанр: триллер
Продолжительность: 01:28:33
Перевод: Профессиональный (многоголосый, закадровый) [лицензия]

Режиссер: Жером Ле Гри
Сценарий: Жером Ле Гри
Продюсер: Ален Терзян, Тьерри Мускат
Оператор: Антуан Моно
Композитор: Jiri Heger, Anne-Sophie Versnaeyen
В ролях: Мелани Лоран, Кловис Корнийяк, Чеки Карио, Кристофер Стиллз, Коррадо Инверницци, Мишель Фо, Фредерик Тирмон, Йохан Лейзен, Джули Фучс
Бюджет: E8 459 177

Мировая премьера: 23 февраля 2011
Релиз на DVD: 14 июля 2011, «CP-Digital»
Описание: Молодая и привлекательная Лукреция наемная убийца, мастер своего дела и любитель оперы. Перед тем как отойти от дел она принимает последнее задание - убить известного оперного певца, который стал на пути крупной корпорации. Чтобы приблизиться к жертве, она притворяется певицей и присоединяется к хору, который выступает в удаленном замке в Швейцарии.
Изображение
Качество: DVD5 (сжатый) R5
Контейнер: DVD-Video
Видео: PAL 16:9 (720x576) VBR, Auto Pan&Scan
Аудио 1: Russian (Dolby AC3, 6 ch), 48000Khz, 448kbps
Аудио 2: Francais (Dolby AC3, 2 ch), 48000Khz, 448kbps - оригинальная дорожка
MI
Общее
Полное имя : G: ....Requiem pour une tueuseVIDEO_TSVTS_04_1.VOB
Формат : MPEG-PS
Размер файла : 1024 Мбайт
Продолжительность : 20 м.
Общий поток : 7064 Кбит/сек

Видео
Идентификатор : 224 (0xE0)
Формат : MPEG Video
Версия формата : Version 2
Профиль формата : Main@Main
Параметр BVOP формата : Да
Параметр матрицы формата : По умолчанию
Продолжительность : 20 м.
Вид битрейта : Переменный
Битрейт : 6027 Кбит/сек
Номинальный битрейт : 8720 Кбит/сек
Ширина : 720 пикс.
Высота : 576 пикс.
Соотношение сторон : 16:9
Частота кадров : 25,000 кадр/сек
Стандарт вещания : PAL
Цветовое пространство : YUV
Подвыборка цветности : 4:2:0
Битовая глубина : 8 бит
Тип развёртки : Прогрессивная
Порядок развёртки : Нижнее поле первое
Метод сжатия : С потерями
Бит/(Пиксели*Кадры) : 0.581
Размер потока : 874 Мбайт (85%)

Аудио #1
Идентификатор : 189 (0xBD)-128 (0x80)
Формат : AC-3
Формат/Информация : Audio Coding 3
Расширение режима : CM (complete main)
Режим смешивания : DVD-Video
Продолжительность : 20 м.
Вид битрейта : Постоянный
Битрейт : 448 Кбит/сек
Каналы : 6 каналов
Расположение каналов : Front: L C R, Side: L R, LFE
Частота : 48,0 КГц
Битовая глубина : 16 бит
Метод сжатия : С потерями
Размер потока : 64,9 Мбайт (6%)

Аудио #2
Идентификатор : 189 (0xBD)-129 (0x81)
Формат : AC-3
Формат/Информация : Audio Coding 3
Расширение режима : CM (complete main)
Режим смешивания : DVD-Video
Продолжительность : 20 м.
Вид битрейта : Постоянный
Битрейт : 448 Кбит/сек
Каналы : 6 каналов
Расположение каналов : Front: L C R, Side: L R, LFE
Частота : 48,0 КГц
Битовая глубина : 16 бит
Метод сжатия : С потерями
Размер потока : 64,9 Мбайт (6%)

Меню
Свернуть
Скриншоты
Изображение

Изображение

Изображение

Изображение

Изображение

Изображение
Свернуть
Не в сети
Профиль  
 Добавлено: 2011-07-14 20:11 (спустя 1 час 50 минут)
Модератор
Аватара пользователя
Стаж: 8 лет 1 месяц
Возраст: 20
Сообщений: 32130
Спасибок: 98568
Лайков: 80
Я на раздаче, но меня тут не видно..
Не в сети
Профиль  
Начать новую темуОтветить на тему  [ Сообщений: 2 ] 
Вы не можете начинать темы
Вы не можете отвечать на сообщения
Вы не можете редактировать свои сообщения
Вы не можете удалять свои сообщения