Правила форума

  • В этом разделе создание новых тем Запрещено.
  • Для создания новых тем пользуйтесь Корневым разделом DVD и HD фильмы.
Начать новую темуОтветить на тему  [ Сообщений: 6 ] 
Торрент файл
Размер: 4.34 GB • Зарегистрирован: 4 года 11 месяцев • Статус: Проверено
Скачан: 216 раз • Желающих скачать: 0 • Поблагодарили: 43 раза
 Раздают: 0  |  0 KB/s  ]   Качают: 0  |  0 KB/s  ] 
 Полного источника не было 9 месяцев 
Сообщения
 Добавлено: 2011-12-21 15:47
Аватара пользователя
Стаж: 5 лет 5 месяцев
Возраст: 30
Сообщений: 353
Спасибок: 7455
Резня / Carnage

Изображение


Год выпуска: 2011
Страна: Германия, Франция, Испания, Польша (Constantin Film Produktion GmbH, SBS Productions, SPI Poland)
Слоган: «A new comedy of no manners.»
Жанр: драма, комедия
Продолжительность: 01:16:09
Перевод: Профессиональный (дубляж)
Дублеры: Анна Каменкова, Марианна Шульц, Василий Дахненко, Алексей Колган, Александр Рахленко
Субтитры: Нет

Режиссёр: Роман Полански / Roman Polanski
Сценарист: Ясмина Реза, Роман Полански
Продюсер: Саид Бен Саид, Оливер Бербен, Мартин Московиц
Оператор: Павел Эдельман
Композитор: Александр Деспла

В ролях: Джоди Фостер, Кейт Уинслет, Кристоф Вальц, Джон Си Райли, Элвис Полански, Элиот Бергер, Joseph Rezwin, Натан Риппи, Таня Лопер, Джули Адамс...

Описание: История двух родительских пар, которые знакомятся после того, как их сыновья сходятся в школьной драке. При этом каждая пара оспаривает родительские навыки другой, вместо того, чтобы разглядеть собственные проблемы.

Доп.информация: Фильм о фильме
Рейтинг MPAA: Рейтинг R (Подростки до 17 лет допускаются на фильм только в сопровождении одного из родителей)
Мировая премьера: 1 сентября 2011
Премьера в России: 8 декабря 2011, «Люксор»
Бюджет: $25 000 000
Кассовые сборы: + $9 784 307 = $9 864 102

Изображение Изображение Изображение

Качество: DVD5 R5
Формат: DVD Video
Видео кодек: MPEG2
Аудио кодек: AC3 (Dolby Digital)
Видео: PAL 16:9 (720x576(0.570)) MPEG Video, 25,000 кадр/сек, 5912 Кбит/сек
Аудио #1: Russian (Dolby AC3, 6 ch) 448 Кбит/сек, 48,0 КГц [Профессиональный (дубляж)]
Субтитры: Нет

"DVDInfo"
Title:
Size: 4.34 Gb ( 4 551 742,00 KBytes ) - DVD-5
Enabled regions: 1, 2, 3, 4, 5, 6, 7, 8

VTS_01 :
Play Length: 00:00:19
Video: PAL 4:3 (720x576) VBR
Audio:
Russian (Dolby AC3, 2 ch)

VTS_02 :
Play Length: 00:00:02
Video: PAL 16:9 (720x576) VBR, Auto Letterboxed
Audio:
Russian (Dolby AC3, 2 ch)

VTS_03 :
Play Length: 01:16:09
Video: PAL 16:9 (720x576) VBR, Auto Letterboxed
Audio:
Russian (Dolby AC3, 6 ch)

VTS_04 :
Play Length: 00:33:48
Video: PAL 16:9 (720x576) VBR, Auto Letterboxed
Audio:
Russian (Dolby AC3, 2 ch)
Свернуть

"MediaInfo"
Полное имя : G:\Новинки 2011\Reznya.2011.DVD5\VIDEO_TS\VTS_03_1.VOB
Формат : MPEG-PS
Размер файла : 1024 Мбайт
Продолжительность : 22 м.
Общий поток : 6489 Кбит/сек

Видео
Идентификатор : 224 (0xE0)
Формат : MPEG Video
Версия формата : Version 2
Профиль формата : Main@Main
Параметр BVOP формата : Да
Параметр матрицы формата : Выборочная
Продолжительность : 22 м.
Вид битрейта : Переменный
Битрейт : 5912 Кбит/сек
Максимальный битрейт : 9800 Кбит/сек
Ширина : 720 пикселей
Высота : 576 пикселей
Соотношение сторон : 16:9
Частота кадров : 25,000 кадров/сек
Стандарт вещания : PAL
Цветовое пространство : YUV
Субдискретизация насыщенности : 4:2:0
Битовая глубина : 8 бит
Тип развёртки : Чересстрочная
Порядок развёртки : Верхнее поле первое
Метод сжатия : С потерями
Бит/(Пиксели*Кадры) : 0.570
Размер потока : 933 Мбайт (91%)

Аудио
Идентификатор : 189 (0xBD)-128 (0x80)
Формат : AC-3
Формат/Информация : Audio Coding 3
Расширение режима : CM (complete main)
Режим смешивания : DVD-Video
Продолжительность : 22 м.
Вид битрейта : Постоянный
Битрейт : 448 Кбит/сек
Каналы : 6 каналов
Расположение каналов : Front: L C R, Side: L R, LFE
Частота : 48,0 КГц
Битовая глубина : 16 бит
Метод сжатия : С потерями
Размер потока : 70,7 Мбайт (7%)

Свернуть


Скриншоты
Скриншоты меню
Изображение
Изображение
Свернуть
Изображение
Изображение
Изображение
Изображение
Изображение
Изображение
Изображение
Изображение
Свернуть



ИзображениеИзображение
Не в сети
Профиль  
 Добавлено: 2011-12-21 17:42 (спустя 1 час 55 минут)
Аватара пользователя
Стаж: 8 лет 7 месяцев
Сообщений: 760
Спасибок: 3256
Лайков: 7
Завалили релизами, спасибо большое! :)
Не в сети
Профиль  
 Добавлено: 2011-12-21 22:45 (спустя 5 часов)
Кинокомментатор
Аватара пользователя
Стаж: 9 лет 1 месяц
Сообщений: 1332
Лайков: 54
самое правильное в этом фильме, то что проблемы придумывают взрослые;) дети не заостряют внимание на ерунде;)
зачёт киноша) 2 помещения) 4 главных героя) и много слов:) и всё по делу) мне понравилось:)
Полански не только девочек... кхе кхе)) хорош он:) достоин внимания:)
7/10
_________________
Я ВКонтакте
Не в сети
Профиль  
 Добавлено: 2011-12-22 20:00 (спустя 21 час)
Стаж: 7 лет 11 месяцев
Сообщений: 11
Спасибок: 116
Как здесь со звуком, а то рип поругивают?
Не в сети
Профиль  
 Добавлено: 2011-12-26 00:10 (спустя 3 дня)
Аватара пользователя
Стаж: 9 лет 1 месяц
Сообщений: 1274
Спасибок: 2449
Лайков: 1
tatiana_ba,
такойже, рип с ДВД жеж сделан. Скачайте сэмпл, послушайте.
_________________
Sayonara NNTT...
Не в сети
Профиль  
 Добавлено: 2012-01-09 14:26 (спустя 14 дней)
Стаж: 8 лет 1 месяц
Сообщений: 35
Смотрел в кино. Интересный и забавный фильм.
Не в сети
Профиль  
Начать новую темуОтветить на тему  [ Сообщений: 6 ] 
Вы не можете начинать темы
Вы не можете отвечать на сообщения
Вы не можете редактировать свои сообщения
Вы не можете удалять свои сообщения