Правила форума

  • В этом разделе создание новых тем Запрещено.
  • Для создания новых тем пользуйтесь Корневым разделом DVD и HD фильмы.
Начать новую темуОтветить на тему  [ Сообщений: 10 ] 
Торрент файл
Размер: 4.03 GB • Зарегистрирован: 4 года 6 месяцев • Статус: Проверено
Скачан: 73 раза • Желающих скачать: 0 • Поблагодарили: 13 раз
 Раздают: 0  |  0 KB/s  ]   Качают: 0  |  0 KB/s  ] 
 Полного источника не было 3 года 2 месяца 
Сообщения
 Добавлено: 2012-05-10 01:23
DVD Release Group
Аватара пользователя
Стаж: 7 лет 1 месяц
Сообщений: 3559
Спасибок: 247429
Лайков: 1020
Рыба моей мечты

Salmon Fishing in the Yemen


Изображение


Год выпуска: 2011
Страна: Великобритания / Kudos Film and Television, BBC Films, Davis Films
Жанр: Драма, мелодрама, комедия
Продолжительность: 01:42:44
Перевод: Профессиональный (многоголосый)
Субтитры: Нет
Режиссер: Лассе Халльстрём
В ролях: Юэн МакГрегор, Эмили Блант, Кристин Скотт Томас, Амр Вакид, Катрин Стэдмен, Том Мисон, Рэйчел Стирлинг, Том Бирд, Джилл Бейкер, Конлет Хилл
Описание: Доктор Альфред Джонс из Лондонского Центра рыболовства получает от некоего таинственного шейха странное предложение: ввести в Йемене спортивные соревнования по ловле лосося. Доктор Джонс отказывается, но абсурдный с научной точки зрения проект попадается на глаза британским политикам, видящим в предложении шейха почти неограниченные возможности. И тут начинается бурная эпистолярная деятельность всех персонажей от премьер-министра до стенографисток, ловля лосося в которой не имеет ровно никакого значения, кроме как отвлечь общественность от более важных вещей, например, от войны в Ираке. Доводы доктора Джонса о громком провале громкого проекта никого не волнуют, впрочем, герой продолжает пытаться жить своей жизнью, будучи сначала пешкой, а затем и жертвой политической игры.
Кинопоиск: 7.26 (404)
IMDb: 7.0 (2646)
Дополнительно: Нет
Качество: DVD5
Формат: DVD Video
Видео кодек: MPEG2
Аудио кодек: AC3
Видео: 720x576 25fps 5036Kbps
Аудио: 48kHz 6ch 384Kbps
"MediaInfo"

Формат : MPEG-PS
Размер файла : 1024 Мбайт
Продолжительность : 25 м.
Режим общего битрейта : Переменный
Общий поток : 5530 Кбит/сек

Видео
Идентификатор : 224 (0xE0)
Формат : MPEG Video
Версия формата : Version 2
Профиль формата : Main@Main
Параметр BVOP формата : Да
Параметр матрицы формата : Выборочная
Продолжительность : 25 м.
Вид битрейта : Переменный
Битрейт : 5036 Кбит/сек
Максимальный битрейт : 8000 Кбит/сек
Ширина : 720 пикселей
Высота : 576 пикселей
Соотношение сторон : 16:9
Частота кадров : 25,000 кадров/сек
Стандарт вещания : PAL
Цветовое пространство : YUV
Субдискретизация насыщенности : 4:2:0
Битовая глубина : 8 бит
Тип развёртки : Чересстрочная
Порядок развёртки : Верхнее поле первое
Метод сжатия : С потерями
Бит/(Пиксели*Кадры) : 0.486
Размер потока : 933 Мбайт (91%)

Аудио
Идентификатор : 189 (0xBD)-128 (0x80)
Формат : AC-3
Формат/Информация : Audio Coding 3
Расширение режима : CM (complete main)
Режим смешивания : DVD-Video
Продолжительность : 25 м.
Вид битрейта : Постоянный
Битрейт : 384 Кбит/сек
Каналы : 6 каналов
Расположение каналов : Front: L C R, Side: L R, LFE
Частота : 48,0 КГц
Битовая глубина : 16 бит
Метод сжатия : С потерями
Размер потока : 71,1 Мбайт (7%)

Меню
Свернуть

"Скриншоты"
Изображение
Изображение
Изображение
Изображение
Изображение
Изображение
Свернуть

Раздача группы:
Изображение
В сети
Профиль  
 Добавлено: 2012-05-10 15:19 (спустя 13 часов)
Кинокомментатор
Аватара пользователя
Стаж: 9 лет 1 месяц
Сообщений: 1332
Лайков: 54
мне кажется кино достойное) надо уделить время:)
_________________
Я ВКонтакте
Не в сети
Профиль  
 Добавлено: 2012-05-10 17:37 (спустя 2 часа 18 минут)
Кинокомментатор
Аватара пользователя
Стаж: 9 лет 1 месяц
Сообщений: 1332
Лайков: 54
на удивление хорошее кино! направленное на то что б мы задумывались о том, что нужно идти сквозь сложности и продолжать искать "свою" жизнь, а не жить нормально и просто так! эх) а разве такое бывает!?(
в общем посмотрите конечно же МакГрегор как минимум того заслуживает!) 8/10
_________________
Я ВКонтакте
Не в сети
Профиль  
 Добавлено: 2012-05-11 15:28 (спустя 21 час)
Аватара пользователя
Стаж: 8 лет 7 месяцев
Сообщений: 760
Спасибок: 3256
Лайков: 7
Яяяяязььь :-D Простите не удержался)
Не в сети
Профиль  
 Добавлено: 2012-05-11 19:32 (спустя 4 часа)
Аватара пользователя
Стаж: 7 лет
Сообщений: 192
Лайков: 9
Йаазь :-D
Сорри!
Не в сети
Профиль  
 Добавлено: 2012-05-13 22:27 (спустя 2 дня 2 часа)
Стаж: 7 лет 8 месяцев
Возраст: 27
Сообщений: 100
Спасибок: 61
Еле досмотрел эту тягомотину... Кто назначил этому фильму столь высокий рейтинг!!!
Первую половину фильма еле просмотрел, думал что сюжет развернется... сюжет не развернулся, потерял 1,5 часа времени.
Не в сети
Профиль  
 Добавлено: 2012-05-14 19:58 (спустя 21 час)
Стаж: 8 лет 3 месяца
Сообщений: 9
Йаааазь )))
ахахахах
Не в сети
Профиль  
 Добавлено: 2012-06-22 00:46 (спустя 1 месяц 7 дней)
Аватара пользователя
Стаж: 7 лет 6 месяцев
Возраст: 51
Сообщений: 1782
Лайков: 1402
Шутки насчет ЯЗЗЗя в сторону - сколько можно? Очень добрый, интересный и гармоничный фильм! Я получил огромное удовольствие - 10 из 10. Спойлерить не буду. Посмотрите сами. Сюжет такой необычный... сто лет такого не видел. Отличное настроение после фильма.
Не в сети
Профиль  
 Добавлено: 2012-06-23 15:09 (спустя 1 день 14 часов)
Аватара пользователя
Стаж: 7 лет 2 месяца
Возраст: 22
Сообщений: 45
Спасибок: 9
Лайков: 1
Просто клас!! Я был в восторге от просмотра! Надо было фильму золотой рейтинг поставить, потому что он гениален! Побольше таких!
Не в сети
Профиль  
 Добавлено: 2012-06-23 15:44 (спустя 35 минут)
Аватара пользователя
Стаж: 7 лет 6 месяцев
Возраст: 51
Сообщений: 1782
Лайков: 1402

naz94:

Просто клас!! Я был в восторге от просмотра! Надо было фильму золотой рейтинг поставить, потому что он гениален! Побольше таких!

Вот именно! Смотрим всякую хрень и плюемся. А отличный (не буду перечислять почему, потому что это займет тучу времени) фильм, пропускаем мимо, как живую рыбу меж ладоней из-за дурацкого ролика в сети. Хотя этот ролик никакого отношения к фильму не имеет. Это так... кто-то постебался, и все дружно сказали "фе", ни пытаясь вникнуть головным мозгом хотя бы в малейшую суть дела.

Так было со многими фильмами, которые для прикола, для собственного поднятия - лягнул кино задним копытом какой-нибудь осёл. А потом, со временем, выпендреж осла утонул в общей куче дерьма, а фильм остался. И его посмотрели миллионы людей, и он потихоньку выбрался в строчки многолетнего рейтинга. Потому что того стоил. И стоит.

Очень рекомендую. И "золото" бы поставил обязательно.

НЕ ИМХО.

Добавлено спустя 11 минут:
Мне вообще непонятно, каким образом этот микроролик из ютуба умудрились привязать к "Рыбалке лососей в Йемене". Точно так же этот дачный клип можно было привязать к "Челюстям" Спилберга или "Желтой подводной лодке " Битлов.

Люди, у вас свои мозги, или одолженные?
Не в сети
Профиль  
Начать новую темуОтветить на тему  [ Сообщений: 10 ] 
Вы не можете начинать темы
Вы не можете отвечать на сообщения
Вы не можете редактировать свои сообщения
Вы не можете удалять свои сообщения