Правила форума

  • В этом разделе создание новых тем Запрещено.
  • Для создания новых тем пользуйтесь Корневым разделом DVD и HD фильмы.
Начать новую темуОтветить на тему  [ Сообщений: 2 ] 
Торрент файл
Размер: 4.37 GB • Зарегистрирован: 4 года 8 месяцев • Статус: Проверено
Скачан: 98 раз • Желающих скачать: 0 • Поблагодарили: 19 раз
 Раздают: 0  |  0 KB/s  ]   Качают: 0  |  0 KB/s  ] 
 Полного источника не было 2 года 3 месяца 
Сообщения
 Добавлено: 2012-03-19 11:19
Руководитель релиз-группы
Аватара пользователя
Стаж: 7 лет 4 месяца
Возраст: 31
Сообщений: 3407
Спасибок: 46729
Лайков: 5
Изображение

Рыжий пес
Red Dog


Год выпуска: 2011
Страна: Австралия
Жанр: драма, комедия, семейный
Продолжительность: 01:28:31
Перевод: Профессиональный (многоголосый, закадровый)
Режиссер: Kriv Stenders
Сценарий: Луи де Берньер, Дэниэл Таплитц
Продюсер: Джули Райан, Нельсон Восс, Су Армстронг
Оператор: Джеффри Холл
Композитор: Цезари Скубижевски
В ролях: Джош Лукас, Рэйчел Тейлор, Ноа Тейлор, Киша Касл-Хьюз, Люк Форд, Билл Хантер, Джон Батчелор, Тиффани Линдэлл-Найт, Имон Фэррен, Артур Энджел
Бюджет: AUD 8 500 000
Описание: В далеком шахтерском поселке, где живут суровые и не слишком общительные люди, однажды появляется энергичный рыжий пес из породы келпи. Только ему под силу расшевелить провинциальное сонное царство. Рыжий не подчиняется никому, но его любят все. С помощью неутомимого пса многим поселенцам суждено обрести друзей, счастье, надежду и радость. А некоторым - найти любовь всей своей жизни.
Изображение
Релиз: Изображение Раздача группы: Изображение
Качество: DVD5 (сжатый)
Формат: DVD Video
Видео: MPEG2; PAL 16:9 (720x576)
Аудио #1: Dolby AC3, 6 ch, 256 Kbps Russian
Аудио #2: Dolby AC3, 6 ch, 256 Kbps English
Субтитры: русские
Дополнительная информация :
Исходник : DVD9 (5.92 Гб) [лицензия, PAL 16:9]
Убрано : заставки, предупреждения, Russian (DTS, 6 ch)
Сжатие фильма : 20.9 % сжатия (без учета ручного перераспределения битрейта, за счет большего сжатия конечных титров)
использовались программы
    DVDRemakePro
    Photoshop
    MuxMan
    Rebuilder и CCE (Cinema Craft Encoder), 5 проходов
    Работоспособность проверена на софтовом плеере Windows Media и бытовом LG
Свернуть
DVDInfo
    Title: Ryzhiy.pes_2011_DVD5.[R.G.Daredevil]
    Size: 4.37 Gb ( 4 579 600,00 KBytes ) - DVD-5
    Enabled regions: 1, 2, 3, 4, 5, 6, 7, 8

    VTS_01 :
    Play Length: 00:00:00
    Video: PAL 16:9 (720x576) VBR, Auto Pan&Scan, Auto Letterboxed

    VTS_02 :
    Play Length: 00:00:00
    Video: PAL 16:9 (720x576) VBR, Auto Pan&Scan, Auto Letterboxed

    VTS_03 :
    Play Length: 01:28:31
    Video: PAL 16:9 (720x576) VBR, Auto Pan&Scan, Auto Letterboxed
    Audio:
    Not specified (Dolby AC3, 6 ch)
    Not specified (DTS, 6 ch)
    Subtitles:
    Not specified
    Not specified
    Not specified
Свернуть
mediainfo
    Формат : MPEG-PS
    Размер файла : 1024 Мбайт
    Продолжительность : 20 м.
    Режим общего битрейта : Переменный
    Общий поток : 7077 Кбит/сек

    Видео
    Идентификатор : 224 (0xE0)
    Формат : MPEG Video
    Версия формата : Version 2
    Профиль формата : Main@Main
    Параметр BVOP формата : Да
    Параметр матрицы формата : Выборочная
    Продолжительность : 20 м.
    Вид битрейта : Переменный
    Битрейт : 6424 Кбит/сек
    Максимальный битрейт : 8670 Кбит/сек
    Ширина : 720 пикселей
    Высота : 576 пикселей
    Соотношение сторон : 16:9
    Частота кадров : 25,000 кадров/сек
    Стандарт вещания : PAL
    Цветовое пространство : YUV
    Субдискретизация насыщенности : 4:2:0
    Битовая глубина : 8 бит
    Тип развёртки : Чересстрочная
    Порядок развёртки : Верхнее поле первое
    Метод сжатия : С потерями
    Бит/(Пиксели*Кадры) : 0.620
    Размер потока : 930 Мбайт (91%)

    Аудио #1
    Идентификатор : 189 (0xBD)-128 (0x80)
    Формат : AC-3
    Формат/Информация : Audio Coding 3
    Расширение режима : CM (complete main)
    Режим смешивания : DVD-Video
    Продолжительность : 20 м.
    Вид битрейта : Постоянный
    Битрейт : 256 Кбит/сек
    Каналы : 6 каналов
    Расположение каналов : Front: L C R, Side: L R, LFE
    Частота : 48,0 КГц
    Битовая глубина : 16 бит
    Метод сжатия : С потерями
    Размер потока : 37,0 Мбайт (4%)

    Аудио #2
    Идентификатор : 189 (0xBD)-130 (0x82)
    Формат : AC-3
    Формат/Информация : Audio Coding 3
    Расширение режима : CM (complete main)
    Режим смешивания : DVD-Video
    Продолжительность : 20 м.
    Вид битрейта : Постоянный
    Битрейт : 256 Кбит/сек
    Каналы : 6 каналов
    Расположение каналов : Front: L C R, Side: L R, LFE
    Частота : 48,0 КГц
    Битовая глубина : 16 бит
    Метод сжатия : С потерями
    Размер потока : 37,0 Мбайт (4%)

    Текст
    Идентификатор : 189 (0xBD)-34 (0x22)
    Формат : RLE
    Формат/Информация : Run-length encoding
    Режим смешивания : DVD-Video

    Меню
Свернуть
Знаете ли Вы, что...
  • Рыжему псу Коко благодарные жители городка Дампьер поставили памятник.
Свернуть
Рецензии

Dastan_160:

Ты видел Джо? Ты видел Джона?
Грех не прослезиться…

Увидел этот фильм сегодня по телевизору. Ну, бывает порой такая ситуация, что каким-то образом затягивает, и рука не поднимается переключить канал. Такое произошло со мной. Сказать честно, я рад, что остался смотреть его.

В фильме повествуется о том, как собака становится другом всему северо-западному побережью Австралии. Рыжий пес сыграл немалую роль в жизни каждого нашего героя. Потеряв своего хозяина, он отправляется на поиски. Конечно, смотреть все это нелегко, но видя, как люди помнят и любят, мне становилось легче. Этот фильм не чем не хуже «Хатико». Возможно даже сильнее. Пес, которого полюбили десятки, а может даже тысяче людей. Пес, который вошел в историю и которому воздвигнул памятник весь регион Австралии. Говорят, мужчины не плачут, но мне кажется, что в этом случае грех не плакать. Я полюбил этот фильм всей душой. И считаю его лучшим в жанре семейного кино.

И спасибо Цезари Скубижевскому за композицию, написанную к этому фильму. За душу берет.

Вердикт:

10 из 10
Свернуть
Трейлер
Свернуть
Скриншоты

меню
Изображение
Изображение
Изображение
Свернуть
Изображение
Изображение
Изображение
Изображение
Свернуть
Не в сети
Профиль  
 Добавлено: 2012-03-19 21:27 (спустя 10 часов)
Аватара пользователя
Стаж: 6 лет 11 месяцев
Сообщений: 167
Господа кто смотрел ... ?? Наподобие хатико ...??
Не в сети
Профиль  
Начать новую темуОтветить на тему  [ Сообщений: 2 ] 
Вы не можете начинать темы
Вы не можете отвечать на сообщения
Вы не можете редактировать свои сообщения
Вы не можете удалять свои сообщения