Правила форума

  • В этом разделе создание новых тем Запрещено.
  • Для создания новых тем пользуйтесь Корневым разделом DVD и HD фильмы.
Начать новую темуОтветить на тему  [ 1 сообщение ] 
Торрент файл
Размер: 4.37 GB • Зарегистрирован: 4 года 2 месяца • Статус: Проверено
Скачан: 73 раза • Желающих скачать: 0 • Поблагодарили: 20 раз
 Раздают: 0  |  0 KB/s  ]   Качают: 0  |  0 KB/s  ] 
 Полного источника не было 2 года 7 месяцев 
Сообщения
 Добавлено: 2012-10-09 15:08
Руководитель релиз-группы
Аватара пользователя
Стаж: 7 лет 5 месяцев
Возраст: 31
Сообщений: 3406
Спасибок: 46729
Лайков: 5
Изображение

Рок на века
Rock of Ages


Год выпуска: 2012
Страна: США
Слоган: «Nothin' but a good time»
Жанр: мюзикл, драма, мелодрама, комедия
Продолжительность: 01:58:21
Перевод: Профессиональный (полное дублирование)
Режиссер: Адам Шенкман
Сценарий: Крис Д’Ариенцо, Джастин Теру, Аллан Лоб
Продюсер: Скотт Прайсэнд, Адам Шенкман, Мэтт Уивер, Дженнифер Джибгот, Гаррет Грант
Оператор: Боян Базелли
В ролях: Джулианна Хаф, Диего Бонета, Расселл Брэнд, Пол Джаматти, Кэтрин Зета-Джонс, Малин Акерман, Мэри Джей Блайдж, Алек Болдуин, Том Круз, Дакота Сэйдж Грант, Мэттью Раш Салливан, Константин Марулись
Бюджет: $75 000 000
Сборы в мире: $51 818 613
Описание: Девушка из маленького города приезжает в Голливуд, чтобы покорить его музыкальную сцену, но вопреки мечтам оказывается раздавленной безжалостной Фабрикой Грез. Но на нее обращает внимание экс-звезда рок-сцены Стэйси Джеккс, а сама девушка, хоть и устраивается работать в стрипклуб, обретает настоящую любовь.
Изображение
MPAA: Изображение
Релиз: Изображение Раздача группы: Изображение
Качество: DVD5 (сжатый)
Формат: DVD Video
Видео: MPEG2; PAL 16:9 (720x576)
Аудио: Dolby AC3, 6 ch, 384 Kbps Russian
Субтитры: русские (форсированные)
Дополнительная информация :
Исходник : DVD9 (5.23 Гб) [лицензия, PAL 16:9]
Убрано : заставки, предупреждения
Сжатие фильма : 19.5 % сжатия (без учета ручного перераспределения битрейта, за счет большего сжатия конечных титров)
использовались программы
    DVDRemakePro
    Rebuilder и CCE (Cinema Craft Encoder), 5 проходов
    Работоспособность проверена на софтовом плеере Windows Media и бытовом LG
Свернуть
DVDInfo
    Title: Rok.na.veka_2012_DVD5.[R.G.Daredevil]
    Size: 4.37 Gb ( 4 578 240,00 KBytes ) - DVD-5
    Enabled regions: 1, 2, 3, 4, 5, 6, 7, 8

    VTS_01 :
    Play Length: 01:58:21+00:00:00
    Video: PAL 16:9 (720x576) VBR, Auto Letterboxed
    Audio:
    Russian (Dolby AC3, 6 ch)
    Subtitles:
    Russian

    VTS_02 :
    Play Length: 00:00:00
    Video: PAL 16:9 (720x576) VBR, Auto Letterboxed
    Audio:
    Not specified (Dolby AC3, 6 ch)
    Subtitles:
    Not specified
Свернуть
mediainfo
    Формат : MPEG-PS
    Размер файла : 1024 Мбайт
    Продолжительность : 25 м.
    Режим общего битрейта : Переменный
    Общий поток : 5544 Кбит/сек

    Видео
    Идентификатор : 224 (0xE0)
    Формат : MPEG Video
    Версия формата : Version 2
    Профиль формата : Main@Main
    Параметр BVOP формата : Да
    Параметр матрицы формата : Выборочная
    Продолжительность : 25 м.
    Вид битрейта : Переменный
    Битрейт : 5050 Кбит/сек
    Ширина : 720 пикселей
    Высота : 576 пикселей
    Соотношение сторон : 16:9
    Частота кадров : 25,000 кадров/сек
    Стандарт вещания : PAL
    Цветовое пространство : YUV
    Субдискретизация насыщенности : 4:2:0
    Битовая глубина : 8 бит
    Метод сжатия : С потерями
    Бит/(Пиксели*Кадры) : 0.487
    Размер потока : 933 Мбайт (91%)

    Аудио
    Идентификатор : 189 (0xBD)-128 (0x80)
    Формат : AC-3
    Формат/Информация : Audio Coding 3
    Расширение режима : CM (complete main)
    Режим смешивания : DVD-Video
    Продолжительность : 25 м.
    Вид битрейта : Постоянный
    Битрейт : 384 Кбит/сек
    Каналы : 6 каналов
    Расположение каналов : Front: L C R, Side: L R, LFE
    Частота : 48,0 КГц
    Битовая глубина : 16 бит
    Метод сжатия : С потерями
    Размер потока : 70,9 Мбайт (7%)

    Меню
Свернуть
Знаете ли Вы, что...
  • «Рок на века» - это киноадаптация одноименного бродвейского мюзикла, поставленного по книге Криса Д`Ариенцо.
  • На роль Дэнниса Дюпри претендовали Уилл Феррелл и Стив Карелл.
  • Тейлор Свифт могла сыграть Шерри, но роль получила Джулианна Хаф.
  • Энн Хэтэуэй и Эми Адамс предлагали роль Констанции, но обе отказались по причине несогласованности расписания съемок. Хэтэуэй была занята съемками в «Темный рыцарь: Возрождение легенды» (2012), а Адамс в фильме «Человек из стали» (2013). В итоге на эту роль взяли Малин Акерман, снимавшуюся в фильме «Хранители» (2009).
  • До того как Малин Акерман получила роль, на ее место рассматривались Гвинет Пэлтроу и Оливия Уайлд.
Свернуть
Скриншоты

меню
Изображение

Изображение

Изображение
Свернуть
Изображение

Изображение

Изображение

Изображение

Изображение
Свернуть
Не в сети
Профиль  
Начать новую темуОтветить на тему  [ 1 сообщение ] 
Вы не можете начинать темы
Вы не можете отвечать на сообщения
Вы не можете редактировать свои сообщения
Вы не можете удалять свои сообщения