Правила форума

  • В этом разделе создание новых тем Запрещено.
  • Для создания новых тем пользуйтесь Корневым разделом DVD и HD фильмы.
Начать новую темуОтветить на тему  [ 1 сообщение ] 
Торрент файл
Размер: 6.05 GB • Зарегистрирован: 3 года 10 месяцев • Статус: Проверено
Скачан: 24 раза • Желающих скачать: 0 • Поблагодарили: 4 раза
 Раздают: 0  |  0 KB/s  ]   Качают: 0  |  0 KB/s  ] 
 Полного источника не было 3 года 2 месяца 
Сообщения
 Добавлено: 2013-01-24 00:52
Руководитель релиз-группы
Аватара пользователя
Стаж: 7 лет 5 месяцев
Возраст: 31
Сообщений: 3406
Спасибок: 46729
Лайков: 5
Изображение

Руби Спаркс
Ruby Sparks


Год выпуска: 2012
Страна: США
Слоган: «Невероятная история любви, ставшая реальностью»
Жанр: фэнтези, мелодрама, комедия
Продолжительность: 01:39:51
Перевод: Профессиональный (полное дублирование)
Режиссер: Джонатан Дэйтон, Валери Фэрис
Сценарий: Зои Казан
Продюсер: Альберт Бергер, Рон Йеркса, Пол Дано, Роберт Граф, Зои Казан
Оператор: Мэттью Либатик
Композитор: Ник Урата
В ролях: Пол Дано, Зои Казан, Антонио Бандерас, Аннетт Бенинг, Стив Куган, Эллиот Гулд, Крис Мессина, Аасиф Мандви, Тони Тракс, Дебора Энн Уолл, Алиа Шокат, Джейн Энн Томас
Сборы в мире: $6 471 874
Описание: Молодой, но уже успешный писатель переживает творческие и душевные муки: новый роман никак не выходит, музы все нет, да и вообще с девушками как-то не клеится. И вот, призвав на помощь остатки своей фантазии, Кэлвин придумывает себе девушку по имени Руби Спаркс - умницу, красавицу, спортсменку, короче говоря, идеал, а спустя неделю... обнаруживает этот идеал из плоти и крови на своем собственном диване. Уходить Руби явно не собирается, но вот кем она окажется - Галатеей или Белочкой?..
Изображение
MPAA: Изображение
Релиз: Изображение Раздача группы: Изображение
Качество: DVD9
Формат: DVD Video
Видео: MPEG2; PAL 16:9 (720x576)
Аудио #1: Dolby AC3, 6 ch, 448 Kbps English
Аудио #2: Dolby AC3, 6 ch, 384 Kbps Russian
Аудио #3: Dolby AC3, 6 ch, 384 Kbps Italiano
Аудио #4: Dolby AC3, 6 ch, 384 Kbps English
Субтитры: русские, английские, датский, финские, итальянские, норвежские, шведские, эстонские, латвийские, литовские, украинские
Дополнительная информация : Сюжет, настоящие пары, поосторожней с желаниями, кинотеатральный ролик
Изображение
DVDInfo
    Title: Rubi.Sparks.2012.D.DVD9.IRONCLUB
    Size: 6.05 Gb ( 6 338 706,00 KBytes ) - DVD-9
    Enabled regions: 1, 2, 3, 4, 5, 6, 7, 8

    VTS_01 :
    Play Length: 01:39:51
    Video: PAL 16:9 (720x576) VBR, Auto Letterboxed
    Audio:
    English (Dolby AC3, 6 ch)
    English (Dolby AC3, 6 ch)
    Italiano (Dolby AC3, 6 ch)
    Russian (Dolby AC3, 6 ch)
    Subtitles:
    English
    Dansk
    Suomi
    Italiano
    Norsk
    Russian
    Svenska
    Estonian
    Latvian
    Lithuanian
    Ukrainian
    Italiano
    Russian

    VTS_02 :
    Play Length: 00:00:01+00:01:18+00:00:11+00:00:11
    Video: PAL 16:9 (720x576) VBR, Auto Pan&Scan
    Audio:
    Not specified (Dolby AC3, 2 ch)

    VTS_03 :
    Play Length: 00:00:01+{00:00:01}
    Video: PAL 16:9 (720x576) VBR, Auto Pan&Scan

    VTS_04 :
    Play Length: 00:00:39+00:00:39+00:01:02+00:01:02
    Video: PAL 16:9 (720x576) VBR, Auto Letterboxed
    Audio:
    English (Dolby AC3, 2 ch)
    Italiano (Dolby AC3, 2 ch)
    Subtitles:
    English
    Dansk
    Suomi
    Italiano
    Norsk
    Russian
    Svenska
    Estonian
    Latvian
    Lithuanian
    Ukrainian

    VTS_05 :
    Play Length: 00:00:07+00:00:08+00:00:15+00:00:08
    Video: PAL 16:9 (720x576) VBR, Auto Pan&Scan
    Audio:
    Not specified (Dolby AC3, 2 ch)

    VTS_06 :
    Play Length: 00:00:24
    Video: PAL 16:9 (720x576) VBR, Auto Letterboxed
    Audio:
    English (Dolby AC3, 6 ch)

    VTS_07 :
    Play Length: 00:03:58+00:02:51+00:03:39
    Video: PAL 16:9 (720x576) VBR, Auto Letterboxed
    Audio:
    English (Dolby AC3, 2 ch)
    Subtitles:
    English
    Dansk
    Suomi
    Italiano
    Norsk
    Russian
    Svenska

    VTS_08 :
    Play Length: 00:00:13
    Video: PAL 16:9 (720x576) VBR, Auto Letterboxed
    Audio:
    English (Dolby AC3, 2 ch)

    VTS_09 :
    Play Length: 00:02:08
    Video: PAL 16:9 (720x576) VBR, Auto Letterboxed
    Audio:
    English (Dolby AC3, 6 ch)

    VTS_10 :
    Play Length: 00:01:54
    Video: PAL 16:9 (720x576) VBR, Auto Letterboxed
    Audio:
    English (Dolby AC3, 6 ch)
Свернуть
mediainfo
    Формат : MPEG-PS
    Размер файла : 1024 Мбайт
    Продолжительность : 19 м.
    Режим общего битрейта : Переменный
    Общий поток : 7320 Кбит/сек

    Видео
    Идентификатор : 224 (0xE0)
    Формат : MPEG Video
    Версия формата : Version 2
    Профиль формата : Main@Main
    Параметр BVOP формата : Да
    Параметр матрицы формата : Выборочная
    Продолжительность : 19 м.
    Вид битрейта : Переменный
    Битрейт : 5574 Кбит/сек
    Максимальный битрейт : 9800 Кбит/сек
    Ширина : 720 пикселей
    Высота : 576 пикселей
    Соотношение сторон : 16:9
    Частота кадров : 25,000 кадров/сек
    Стандарт вещания : PAL
    Цветовое пространство : YUV
    Субдискретизация насыщенности : 4:2:0
    Битовая глубина : 8 бит
    Тип развёртки : Чересстрочная
    Порядок развёртки : Верхнее поле первое
    Метод сжатия : С потерями
    Бит/(Пиксели*Кадры) : 0.538
    Размер потока : 780 Мбайт (76%)

    Аудио #1
    Идентификатор : 189 (0xBD)-128 (0x80)
    Формат : AC-3
    Формат/Информация : Audio Coding 3
    Расширение режима : CM (complete main)
    Режим смешивания : DVD-Video
    Продолжительность : 19 м.
    Вид битрейта : Постоянный
    Битрейт : 448 Кбит/сек
    Каналы : 6 каналов
    Расположение каналов : Front: L C R, Side: L R, LFE
    Частота : 48,0 КГц
    Битовая глубина : 16 бит
    Метод сжатия : С потерями
    Размер потока : 62,7 Мбайт (6%)

    Аудио #2
    Идентификатор : 189 (0xBD)-129 (0x81)
    Формат : AC-3
    Формат/Информация : Audio Coding 3
    Расширение режима : CM (complete main)
    Режим смешивания : DVD-Video
    Продолжительность : 19 м.
    Вид битрейта : Постоянный
    Битрейт : 384 Кбит/сек
    Каналы : 6 каналов
    Расположение каналов : Front: L C R, Side: L R, LFE
    Частота : 48,0 КГц
    Битовая глубина : 16 бит
    Метод сжатия : С потерями
    Размер потока : 53,7 Мбайт (5%)

    Аудио #3
    Идентификатор : 189 (0xBD)-130 (0x82)
    Формат : AC-3
    Формат/Информация : Audio Coding 3
    Расширение режима : CM (complete main)
    Режим смешивания : DVD-Video
    Продолжительность : 19 м.
    Вид битрейта : Постоянный
    Битрейт : 384 Кбит/сек
    Каналы : 6 каналов
    Расположение каналов : Front: L C R, Side: L R, LFE
    Частота : 48,0 КГц
    Битовая глубина : 16 бит
    Метод сжатия : С потерями
    Размер потока : 53,7 Мбайт (5%)

    Аудио #4
    Идентификатор : 189 (0xBD)-131 (0x83)
    Формат : AC-3
    Формат/Информация : Audio Coding 3
    Расширение режима : CM (complete main)
    Режим смешивания : DVD-Video
    Продолжительность : 19 м.
    Вид битрейта : Постоянный
    Битрейт : 384 Кбит/сек
    Каналы : 6 каналов
    Расположение каналов : Front: L C R, Side: L R, LFE
    Частота : 48,0 КГц
    Битовая глубина : 16 бит
    Метод сжатия : С потерями
    Размер потока : 53,7 Мбайт (5%)

    Текст #1
    Идентификатор : 189 (0xBD)-32 (0x20)
    Формат : RLE
    Формат/Информация : Run-length encoding
    Режим смешивания : DVD-Video

    Текст #2
    Идентификатор : 189 (0xBD)-33 (0x21)
    Формат : RLE
    Формат/Информация : Run-length encoding
    Режим смешивания : DVD-Video

    Текст #3
    Идентификатор : 189 (0xBD)-34 (0x22)
    Формат : RLE
    Формат/Информация : Run-length encoding
    Режим смешивания : DVD-Video

    Текст #4
    Идентификатор : 189 (0xBD)-35 (0x23)
    Формат : RLE
    Формат/Информация : Run-length encoding
    Режим смешивания : DVD-Video

    Текст #5
    Идентификатор : 189 (0xBD)-36 (0x24)
    Формат : RLE
    Формат/Информация : Run-length encoding
    Режим смешивания : DVD-Video

    Текст #6
    Идентификатор : 189 (0xBD)-37 (0x25)
    Формат : RLE
    Формат/Информация : Run-length encoding
    Режим смешивания : DVD-Video

    Текст #7
    Идентификатор : 189 (0xBD)-38 (0x26)
    Формат : RLE
    Формат/Информация : Run-length encoding
    Режим смешивания : DVD-Video

    Текст #8
    Идентификатор : 189 (0xBD)-39 (0x27)
    Формат : RLE
    Формат/Информация : Run-length encoding
    Режим смешивания : DVD-Video

    Текст #9
    Идентификатор : 189 (0xBD)-40 (0x28)
    Формат : RLE
    Формат/Информация : Run-length encoding
    Режим смешивания : DVD-Video

    Текст #10
    Идентификатор : 189 (0xBD)-41 (0x29)
    Формат : RLE
    Формат/Информация : Run-length encoding
    Режим смешивания : DVD-Video

    Текст #11
    Идентификатор : 189 (0xBD)-42 (0x2A)
    Формат : RLE
    Формат/Информация : Run-length encoding
    Режим смешивания : DVD-Video

    Меню

Свернуть
Знаете ли Вы, что...
  • Зои Казан, исполнившая роль Руби, так же написала сценарий к фильму. Дедушка Зои - Элиа Казан, режиссер фильма «В порту» (1954). Ее мать написала сценарий для фильма «Загадочная история Бенджамина Баттона» (2008). А ее отец - сценарист фильма «Изнанка судьбы» (1990).
  • Всякий раз, когда Пол нес Зои на плече, ее подменял дублер.
Свернуть
Скриншоты

Скриншоты
Изображение

Изображение

Изображение

Изображение

Изображение
Свернуть
Изображение

Изображение

Изображение
Свернуть
Не в сети
Профиль  
Начать новую темуОтветить на тему  [ 1 сообщение ] 
Вы не можете начинать темы
Вы не можете отвечать на сообщения
Вы не можете редактировать свои сообщения
Вы не можете удалять свои сообщения