Правила форума

  • В этом разделе создание новых тем Запрещено.
  • Для создания новых тем пользуйтесь Корневым разделом DVD и HD фильмы.
Начать новую темуОтветить на тему  [ Сообщений: 2 ] 
Торрент файл
Размер: 4.51 GB • Зарегистрирован: 5 лет 4 месяца • Статус: Проверено
Скачан: 133 раза • Желающих скачать: 0 • Поблагодарили: 17 раз
 Раздают: 0  |  0 KB/s  ]   Качают: 0  |  0 KB/s  ] 
 Полного источника не было 3 года 2 месяца 
Сообщения
 Добавлено: 2011-07-15 21:39
Аватара пользователя
Стаж: 6 лет 6 месяцев
Сообщений: 214
Спасибок: 10697
Руки-ноги за любовь
Burke and Hare

Изображение

Год выпуска: 2010
Страна: Великобритания
Слоган: «No Job Too Small. No Body Too Big. No Questions Asked.»
Жанр: триллер, комедия
Продолжительность: 01:31:27
Перевoд: Профессиональный (полное дублирование)

Режиссер: Джон Лэндис
Сценарий: Пьерс Эшворт, Ник Муркрофт
Продюсер: Барнеби Томпсон, Джеймс Атертон, Пол Бретт, Александра Фергюсон, Жан Паке
Оператор: Джон Мэтисон
Композитор: Джоби Тэлбот

В ролях: Саймон Пегг, Энди Серкис, Айла Фишер, Том Уилкинсон, Билл Бэйли, Майкл Смайли, Тим Карри, Пол Дэвис, Кристиан Брассингтон, Джессика Хайнс
Дублёры: Вероника Саркисова, Дмитрий Курта, Диомид Виноградов
Сборы в России: $650 272
Мировая премьера: 29 октября 2010
Релиз на DVD: 21 июля 2011, «Флагман-Трейд»
Описание: Черная комедия, действие которой происходит в 19 веке, поведает нам историю двух грабителей могил, которые находят для себя прибыль в похищении трупов и доставки их в Эдинбургскую военно-медицинскую школу
Изображение 6.10 (3 565) Изображение 6.339 (1 254)
Раздача: Изображение
Изображение
Качество: DVD9 R5
Формат: DVD-Video
Видео: PAL 16:9 (720x576) VBR
Аудио: Russian (Dolby AC3, 6 ch) 384Kbps
Аудио 2: English (Dolby AC3, 2 ch) 192Kbps
NFO
Title:
Size: 4.51 Gb ( 4 733 826 KBytes ) - DVD-9
Enabled regions: 1, 2, 3, 4, 5, 6, 7, 8

VTS_01 :
Play Length: 00:00:19
Video: PAL 4:3 (720x576) VBR
Audio:
Russian (Dolby AC3, 2 ch)

VTS_02 :
Play Length: 00:00:02
Video: PAL 16:9 (720x576) VBR, Auto Pan&Scan
Audio:
Russian (Dolby AC3, 2 ch)

VTS_03 :
Play Length: 01:31:27
Video: PAL 16:9 (720x576) VBR, Auto Pan&Scan
Audio:
Russian (Dolby AC3, 6 ch)
English (Dolby AC3, 2 ch)
Свернуть
MediaInfo
General
Complete name : E:\диск\Burke and Hare\VTS_03_2.VOB
Format : MPEG-PS
File size : 1 024 MiB
Duration : 20mn 26s
Overall bit rate : 7 003 Kbps

Video
ID : 224 (0xE0)
Format : MPEG Video
Format version : Version 2
Format profile : Main@Main
Format settings, BVOP : Yes
Format settings, Matrix : Default
Format settings, GOP : M=3, N=12
Duration : 20mn 26s
Bit rate mode : Variable
Bit rate : 6 288 Kbps
Nominal bit rate : 8 400 Kbps
Width : 720 pixels
Height : 576 pixels
Display aspect ratio : 16:9
Frame rate : 25.000 fps
Standard : PAL
Color space : YUV
Chroma subsampling : 4:2:0
Bit depth : 8 bits
Scan type : Progressive
Compression mode : Lossy
Bits/(Pixel*Frame) : 0.606
Stream size : 919 MiB (90%)

Audio #1
ID : 189 (0xBD)-128 (0x80)
Format : AC-3
Format/Info : Audio Coding 3
Mode extension : CM (complete main)
Muxing mode : DVD-Video
Duration : 20mn 26s
Bit rate mode : Constant
Bit rate : 384 Kbps
Channel(s) : 6 channels
Channel positions : Front: L C R, Side: L R, LFE
Sampling rate : 48.0 KHz
Bit depth : 16 bits
Compression mode : Lossy
Delay relative to video : -608ms
Stream size : 56.1 MiB (5%)

Audio #2
ID : 189 (0xBD)-129 (0x81)
Format : AC-3
Format/Info : Audio Coding 3
Mode extension : CM (complete main)
Muxing mode : DVD-Video
Duration : 20mn 26s
Bit rate mode : Constant
Bit rate : 192 Kbps
Channel(s) : 2 channels
Channel positions : Front: L R
Sampling rate : 48.0 KHz
Bit depth : 16 bits
Compression mode : Lossy
Delay relative to video : -512ms
Stream size : 28.1 MiB (3%)
Свернуть

"Знаете ли Вы, что..."
  • Фильм основан на реальных событиях: серии из 17 убийств, совершённых с ноября 1827 по 31 октября 1828 года в окрестностях улицы Уэст-порт в Эдинбурге ирландскими иммигрантами Уильямом Бёрком и Уильямом Хэром. Бёрк и Хэр продавали трупы своих жертв в качестве материала для препарирования известному эдинбургскому врачу Роберту Ноксу — учредителю частных анатомических курсов для студентов Эдинбургского медицинского колледжа. Сообщницами преступников стали любовница Бёрка Хелен М’Дугал и жена Хэра Маргарет Лэрд. Способ убийства, применявшийся Бёрком и Хэром — удушение путём сдавливания грудной клетки жертвы — получил в английском языке самостоятельное название burking, от burke — убить, задушить; в переносном смысле — замять дело, разделаться тихо и незаметно.
  • В сцене на кладбище можно видеть знаменитую собаку Грейфраерс Бобби, получившую известность благодаря необычайной преданности хозяину — после его смерти она провела 14 лет на его могиле. Однако Бобби жил во второй половине XIX века, в то время как события, о которых повествует фильм, происходят на полвека раньше.
  • В реальной жизни любовницей Бёрка была Хелен МакДугал, с которой он проживал в съёмных апартаментах у Хэйров. История с актрисой Джинни является выдумкой автора.
  • Жозеф Ньепс, один из первооткрывателей фотографии, в фильме делает гелиографические снимки трупов после вскрытия их доктором Ноксом. В действительности отсутствуют данные о пребывании Ньепса в Эдинбурге.
Свернуть
"Скриншоты"

Изображение
Изображение
Изображение
Изображение
Изображение
Свернуть
Не в сети
Профиль  
 Добавлено: 2011-07-28 18:10 (спустя 12 дней)
Аватара пользователя
Стаж: 7 лет 6 месяцев
Сообщений: 13
Прикольно, посмотрел с большим удовольствием! :-D
Не в сети
Профиль  
Начать новую темуОтветить на тему  [ Сообщений: 2 ] 
Вы не можете начинать темы
Вы не можете отвечать на сообщения
Вы не можете редактировать свои сообщения
Вы не можете удалять свои сообщения