Правила форума

  • В этом разделе создание новых тем Запрещено.
  • Для создания новых тем пользуйтесь Корневым разделом DVD и HD фильмы.
Начать новую темуОтветить на тему  [ Сообщений: 6 ] 
Торрент файл
Размер: 4.36 GB • Зарегистрирован: 3 года 11 месяцев • Статус: Проверено
Скачан: 100 раз • Желающих скачать: 0 • Поблагодарили: 30 раз
 Раздают: 0  |  0 KB/s  ]   Качают: 0  |  0 KB/s  ] 
 Полного источника не было 11 месяцев 
Сообщения
 Добавлено: 2012-12-27 00:43
Руководитель релиз-группы
Аватара пользователя
Стаж: 7 лет 5 месяцев
Возраст: 31
Сообщений: 3406
Спасибок: 46729
Лайков: 5
Изображение

Самый страшный фильм 3D
Dead Before Dawn 3D


Год выпуска: 2012
Страна: Канада
Слоган: «Зомби + чуваки = зомбаки»
Жанр: ужасы, комедия, приключения
Продолжительность: 01:24:45
Перевод: Профессиональный (полное дублирование)
Режиссер: Эйприл Маллен
Сценарий: Тим Дойрон
Продюсер: Тим Дойрон, Эйприл Маллен, Эви Федергрин
Оператор: Дэниэл Грант
В ролях: Девон Бостик, Кристофер Ллойд, Марта МакАйсак, Брэндон Джей МакЛарен, Бриттани Аллен, Эйприл Маллен, Тим Дойрон, Кевин МакДональд, Эллен Дубин, Кайл Шмид
Описание: Комедийная пародия на фильмы о зомби. Оставшись за главного в лавке древностей, принадлежащей его деду, Каспер, и его друзья по колледжу, случайно разбивают старинный артефакт и обрушивают себе на голову древнее проклятье. Теперь, стоит им только взглянуть на кого-нибудь, как тот убивает себя, а потом воскресает зомбаком! Пока друзья разбирались в чем тут дело, половина города успела превратится в зомби. Зомбаками стали даже ребята из сборной колледжа по футболу и девчонки из группы поддержки. Теперь друзьям необходимо срочно найти способ снять проклятье. Это будет нелегко, но зато очень круто и дико смешно!
Изображение
Релиз: Изображение Раздача группы: Изображение
Качество: DVD5 (сжатый)
Формат: DVD Video
Видео: MPEG2; PAL 16:9 (720x576)
Аудио: Dolby AC3, 6 ch, 448 Kbps Russian
Дополнительная информация :
Исходник : DVD9 (5.88 Гб) [лицензия, PAL 16:9]
Убрано : допы, реклама, заставки, предупреждения
Сжатие фильма : 17.4 % сжатия (без учета ручного перераспределения битрейта, за счет большего сжатия конечных титров).
использовались программы
    DVDRemakePro
    Photoshop
    MuxMan
    Rebuilder и CCE (Cinema Craft Encoder), 5 проходов
    Работоспособность проверена на софтовом плеере Windows Media и бытовом LG
Свернуть
DVDInfo
    Title: Samyi.strashnyi.film_2012_DVD5.[R.G.Daredevil]
    Size: 4.36 Gb ( 4 573 552,00 KBytes ) - DVD-5
    Enabled regions: 1, 2, 3, 4, 5, 6, 7, 8

    VTS_01 :
    Play Length: 00:00:00
    Video: PAL 4:3 (720x576) VBR
    Audio:
    Not specified (Dolby AC3, 2 ch)

    VTS_02 :
    Play Length: 00:00:00
    Video: PAL 16:9 (720x576) VBR, Auto Letterboxed
    Audio:
    Not specified (Dolby AC3, 2 ch)

    VTS_03 :
    Play Length: 00:00:00
    Video: PAL 16:9 (720x576) VBR, Auto Letterboxed
    Audio:
    Russian (Dolby AC3, 2 ch)
    Russian (Dolby AC3, 2 ch)

    VTS_04 :
    Play Length: 01:24:45
    Video: PAL 16:9 (720x576) VBR, Auto Letterboxed
    Audio:
    Russian (Dolby AC3, 6 ch)

    VTS_05 :
    Play Length: 00:00:00
    Video: PAL 16:9 (720x576) VBR, Auto Letterboxed
    Audio:
    Russian (Dolby AC3, 2 ch)
    Russian (Dolby AC3, 2 ch)

    VTS_06 :
    Play Length: 00:00:00
    Video: PAL 16:9 (720x576) VBR, Auto Letterboxed
    Audio:
    Not specified (Dolby AC3, 2 ch)

    VTS_07 :
    Play Length: 00:00:00
    Video: PAL 16:9 (720x576) VBR, Auto Letterboxed
    Audio:
    Not specified (Dolby AC3, 2 ch)

    VTS_08 :
    Play Length: 00:00:00
    Video: PAL 16:9 (720x576) VBR, Auto Letterboxed
    Audio:
    Not specified (Dolby AC3, 2 ch)

    VTS_09 :
    Play Length: 00:00:00
    Video: PAL 16:9 (720x576) VBR, Auto Letterboxed
    Audio:
    Not specified (Dolby AC3, 2 ch)

    VTS_10 :
    Play Length: 00:00:00
    Video: PAL 16:9 (720x576) VBR, Auto Letterboxed
    Audio:
    Not specified (Dolby AC3, 2 ch)

    VTS_11 :
    Play Length: 00:00:00
    Video: PAL 16:9 (720x576) VBR, Auto Letterboxed
    Audio:
    Not specified (Dolby AC3, 2 ch)

    VTS_12 :
    Play Length: 00:00:00
    Video: PAL 16:9 (720x576) VBR, Auto Letterboxed
    Audio:
    Not specified (Dolby AC3, 2 ch)

    VTS_13 :
    Play Length: 00:00:00
    Video: PAL 16:9 (720x576) VBR, Auto Letterboxed
    Audio:
    Not specified (Dolby AC3, 2 ch)
Свернуть
mediainfo
    Формат : MPEG-PS
    Размер файла : 1024 Мбайт
    Продолжительность : 19 м.
    Режим общего битрейта : Переменный
    Общий поток : 7533 Кбит/сек

    Видео
    Идентификатор : 224 (0xE0)
    Формат : MPEG Video
    Версия формата : Version 2
    Профиль формата : Main@Main
    Параметр BVOP формата : Да
    Параметр матрицы формата : Выборочная
    Продолжительность : 19 м.
    Вид битрейта : Переменный
    Битрейт : 6935 Кбит/сек
    Максимальный битрейт : 8441 Кбит/сек
    Ширина : 720 пикселей
    Высота : 576 пикселей
    Соотношение сторон : 16:9
    Частота кадров : 25,000 кадров/сек
    Стандарт вещания : PAL
    Цветовое пространство : YUV
    Субдискретизация насыщенности : 4:2:0
    Битовая глубина : 8 бит
    Тип развёртки : Чересстрочная
    Порядок развёртки : Нижнее поле первое
    Метод сжатия : С потерями
    Бит/(Пиксели*Кадры) : 0.669
    Размер потока : 943 Мбайт (92%)

    Аудио
    Идентификатор : 189 (0xBD)-128 (0x80)
    Формат : AC-3
    Формат/Информация : Audio Coding 3
    Расширение режима : CM (complete main)
    Режим смешивания : DVD-Video
    Продолжительность : 19 м.
    Вид битрейта : Постоянный
    Битрейт : 448 Кбит/сек
    Каналы : 6 каналов
    Расположение каналов : Front: L C R, Side: L R, LFE
    Частота : 48,0 КГц
    Битовая глубина : 16 бит
    Метод сжатия : С потерями
    Размер потока : 60,9 Мбайт (6%)

    Меню
Свернуть
Скриншоты

меню
Изображение

Изображение
Свернуть
Изображение

Изображение

Изображение

Изображение

Изображение
Свернуть
Не в сети
Профиль  
 Добавлено: 2012-12-27 01:20 (спустя 36 минут)
Аватара пользователя
Стаж: 4 года 2 месяца
Возраст: 21
Сообщений: 1360
Лайков: 7
че какой рейтинг низкий?
_________________
Если ты это читаешь, значит ты неудачник.
Не в сети
Профиль  
 Добавлено: 2012-12-27 11:05 (спустя 9 часов)
Модератор релиз-группы
Аватара пользователя
Стаж: 6 лет 5 месяцев
Возраст: 25
Сообщений: 622
Спасибок: 10258
Лайков: 7
Magebane
А ты погляди фильм и узнаешь :hi_hi_hi:
_________________
Изображение
Не в сети
Профиль  
 Добавлено: 2012-12-28 19:04 (спустя 1 день 7 часов)
DVD Release Group
Аватара пользователя
Стаж: 7 лет 9 месяцев
Сообщений: 364
Спасибок: 3089
Лайков: 10
Кристофера Ллойда озвучивает Никита Джигурда!!! :sh_ok:
Не в сети
Профиль  
 Добавлено: 2012-12-29 22:48 (спустя 1 день 3 часа)
Стаж: 6 лет
Сообщений: 10
Лайков: 1
Как фильмец?
<a href="http://www.citilink.ru/?r=il00757107"><img src="http://www.citilink.ru/i/logo_r.jpg" width="155" height="35" border="0" /></a>
Не в сети
Профиль  
 Добавлено: 2012-12-30 20:58 (спустя 22 часа)
DVD Release Group
Аватара пользователя
Стаж: 7 лет 9 месяцев
Сообщений: 364
Спасибок: 3089
Лайков: 10
На мой взгляд, вполне соответствует рейтингу - муть. Даже Кристофер Ллойд не спас эту безнадегу. Хотя, возможно, я чего-то не понимаю и оскорбляю светлые чуЙства любителей зомби. :par_don:
Не в сети
Профиль  
Начать новую темуОтветить на тему  [ Сообщений: 6 ] 
Вы не можете начинать темы
Вы не можете отвечать на сообщения
Вы не можете редактировать свои сообщения
Вы не можете удалять свои сообщения