Правила форума

  • В этом разделе создание новых тем Запрещено.
  • Для создания новых тем пользуйтесь Корневым разделом DVD и HD фильмы.
Начать новую темуОтветить на тему  [ Сообщений: 4 ] 
Торрент файл
Размер: 6.31 GB • Зарегистрирован: 5 лет 3 месяца • Статус: Проверено
Скачан: 503 раза • Желающих скачать: 0 • Поблагодарили: 61 раз
 Раздают: 0  |  0 KB/s  ]   Качают: 0  |  0 KB/s  ] 
 Полного источника не было 9 месяцев 
Сообщения
 Добавлено: 2011-08-24 19:25
Аватара пользователя
Стаж: 5 лет 5 месяцев
Возраст: 30
Сообщений: 353
Спасибок: 7455
Секс по дружбе / Friends with Benefits

Изображение


Год выпуска: 2011
Страна: США (Castle Rock Entertainment, Olive Bridge Entertainment, Screen Gems, Zucker Productions)
Жанр: драма, мелодрама, комедия
Продолжительность: 01:44:59
Перевод: Профессиональный (дубляж)
Дублеры: Илья Бледный, Ирина Киреева, Ольга Зубкова, Нина Тобилевич, Александр Новиков + Профессиональный (дубляж)
Субтитры: Нет

Режиссёр: Уилл Глак / Will Gluck
Сценарист: Кейт Мерримен, Дэвид А. Ньюман, Уилл Глак
Продюсер: Лиз Глоцер, Уилл Глак, Мартин Шэфер
Оператор: Майкл Грэйди

В ролях: Джастин Тимберлэйк, Мила Кунис, Патришия Кларксон, Дженна Элфмэн, Брайан Гринберг, Ричард Дженкинс, Вуди Харрельсон, Нолан Гоулд, Энди Сэмберг, Шон Уайт...

Описание: Главная героиня — сотрудник кадрового агентства, которую преследуют фобии в отношениях с обязательствами. Однако, эти проблемы оказываются надуманными, после того как она встречает редактора глянцевого журнала. Он, в свою очередь, устал от женщин, которые мечтают вступить с ним в связь. Таким образом, созданы все условия для бурного романа и столкновения характеров и желаний.

Доп.информация: нет
Рейтинг MPAA: Рейтинг R (Подростки до 17 лет допускаются на фильм только в сопровождении одного из родителей)
Мировая премьера: 22 июля 2011
Премьера в России: 28 июля 2011, «WDSSPR»
Бюджет: $35 000 000
Кассовые сборы: + $13 400 000 = $68 183 442

Изображение Изображение Изображение


Качество: DVD9 R5
Формат: DVD Video
Видео кодек: MPEG2
Аудио кодек: AC3 (Dolby Digital)
Видео: PAL 16:9 (720x576(0.789)) MPEG Video, 25,000 кадр/сек, 8179 Кбит/сек
Аудио #1: Russian (Dolby AC3, 6 ch) 384 Кбит/сек, 48,0 КГц [Профессиональный (дубляж)]
Аудио #2: Ukrainian (Dolby AC3, 6 ch) 384 Кбит/сек, 48,0 КГц [Профессиональный (дубляж)]
Субтитры: Нет
Скриншоты
Скриншоты меню
Изображение
Изображение
Изображение
Свернуть
Изображение
Изображение
Изображение
Изображение
Изображение
Изображение
Изображение
Изображение
Свернуть


"DVDInfo"
Title: Рабочий
Size: 6.31 Gb ( 6 614 190 KBytes ) - DVD-9
Enabled regions: 1, 2, 3, 4, 5, 6, 7, 8

VTS_01 :
Play Length: 01:44:59
Video: PAL 16:9 (720x576) VBR, Auto Letterboxed
Audio:
Russian (Dolby AC3, 6 ch)
Ukrainian (Dolby AC3, 6 ch)
Subtitles:
Russian

Свернуть

"MediaInfo"
Общее
Полное имя : G:\Новинки 2011\Seks.po.druzhbe.2011.DVD9\VIDEO_TS\VTS_01_1.VOB
Формат : MPEG-PS
Размер файла : 1024 Мбайт
Продолжительность : 15 м.
Общий поток : 9129 Кбит/сек

Видео
Идентификатор : 224 (0xE0)
Формат : MPEG Video
Версия формата : Version 2
Профиль формата : Main@Main
Параметр BVOP формата : Да
Параметр матрицы формата : Выборочная
Продолжительность : 15 м.
Вид битрейта : Переменный
Битрейт : 8179 Кбит/сек
Максимальный битрейт : 9000 Кбит/сек
Ширина : 720 пикселей
Высота : 576 пикселей
Соотношение сторон : 16:9
Частота кадров : 25,000 кадров/сек
Стандарт вещания : PAL
Цветовое пространство : YUV
Субдискретизация насыщенности : 4:2:0
Битовая глубина : 8 бит
Тип развёртки : Прогрессивная
Порядок развёртки : Верхнее поле первое
Метод сжатия : С потерями
Бит/(Пиксели*Кадры) : 0.789
Размер потока : 917 Мбайт (90%)

Аудио #1
Идентификатор : 189 (0xBD)-128 (0x80)
Формат : AC-3
Формат/Информация : Audio Coding 3
Расширение режима : CM (complete main)
Режим смешивания : DVD-Video
Продолжительность : 15 м.
Вид битрейта : Постоянный
Битрейт : 384 Кбит/сек
Каналы : 6 каналов
Расположение каналов : Front: L C R, Side: L R, LFE
Частота : 48,0 КГц
Битовая глубина : 16 бит
Метод сжатия : С потерями
Размер потока : 43,1 Мбайт (4%)

Аудио #2
Идентификатор : 189 (0xBD)-129 (0x81)
Формат : AC-3
Формат/Информация : Audio Coding 3
Расширение режима : CM (complete main)
Режим смешивания : DVD-Video
Продолжительность : 15 м.
Вид битрейта : Постоянный
Битрейт : 384 Кбит/сек
Каналы : 6 каналов
Расположение каналов : Front: L C R, Side: L R, LFE
Частота : 48,0 КГц
Битовая глубина : 16 бит
Метод сжатия : С потерями
Размер потока : 43,1 Мбайт (4%)

Свернуть

Знаете ли Вы, что...
В аэропорту главная героиня берёт табличку с именем О. Пендергаст. Так звали главную героиню фильма «Отличница легкого поведения», роль которой исполняет Эмма Стоун, играющая небольшую роль в данном фильме.
Свернуть

Изображение
Не в сети
Профиль  
 Добавлено: 2011-09-07 14:36 (спустя 13 дней)
Аватара пользователя
Стаж: 8 лет 7 месяцев
Возраст: 28
Сообщений: 16
Спасибок: 21
Не плохой фильм!Посмотреть разок стоит))
Не в сети
Профиль  
 Добавлено: 2011-10-08 19:35 (спустя 1 месяц 1 день)
Аватара пользователя
Стаж: 8 лет 1 месяц
Сообщений: 11
Спасибок: 5
Лайков: 1
Я конечно понимаю, что украинский это очень круто :co_ol:
Но почему не в одной из раздач нет оригинальной дорожки :(
Не в сети
Профиль  
 Добавлено: 2012-05-21 14:50 (спустя 7 месяцев)
Аватара пользователя
Стаж: 7 лет 5 месяцев
Возраст: 51
Сообщений: 1772
Лайков: 1386
Фильм отличный, посмотрел с огромным удовольствием и отложил в копилку. Очень рекомендую для поднятия настроения.

Рецензию писать не буду, лень. Посмотрите это кино и убедитесь сами.

Единственное, что отмечу - Тимберлейка. Обычно он играет так себе, но в этой фильме отыграл на все сто. Молодец парень. Растет.

Да и Мила Кунис - лапочка.
В сети
Профиль  
Начать новую темуОтветить на тему  [ Сообщений: 4 ] 
Вы не можете начинать темы
Вы не можете отвечать на сообщения
Вы не можете редактировать свои сообщения
Вы не можете удалять свои сообщения