Правила форума

  • В этом разделе создание новых тем Запрещено.
  • Для создания новых тем пользуйтесь Корневым разделом DVD и HD фильмы.
Начать новую темуОтветить на тему  [ 1 сообщение ] 
Торрент файл
Размер: 5.87 GB • Зарегистрирован: 6 лет 3 месяца • Статус: Проверено
Скачан: 94 раза • Желающих скачать: 0 • Поблагодарили: 13 раз
 Раздают: 0  |  0 KB/s  ]   Качают: 0  |  0 KB/s  ] 
 Полного источника не было 3 дня 
Сообщения
 Добавлено: 2010-09-01 11:06
DVD Release Group
Аватара пользователя
Стаж: 7 лет 1 месяц
Сообщений: 3558
Спасибок: 247239
Лайков: 1018
Сердцеед

L'arnacoeur

«Перед ним пока не устояла ни одна женщина...»


Изображение


Год выпуска: 2010
Страна: Франция / Монако, Quad Productions
Жанр: Комедия, мелодрама
Продолжительность: 01:44:50
Перевод: Профессиональный (полное дублирование)
Субтитры: Нет
Режиссер: Паскаль Шомель
В ролях: Ромен Дюри, Ванесса Паради, Жюли Ферье, Франсуа Дамиенс, Эндрю Линкольн, Жак Франц, Жан-Мари Пари
Описание: Прожженный дамский угодник Алекс затевает на пару с сестрой занятный бизнес: он разбивает нежелательные для клиентов романтические союзы. Дело идет как по маслу, пока Алексу не попадается по-настоящему сложный заказ — ему поручено разлучить поистине идеальную пару.
Дополнительно: Анонсы
Кинопоиск: 7.149 (7713)
IMDb: 6.80 (7394)
Качество: DVD9
Формат: DVD Video
Видео кодек: MPEG2
Аудио кодек: AC3
Видео: 720x576 (16:9) 25.00fps 6441Kbps
Аудио:
Audio Rus: 48kHz 6ch 448Kbps
Audio Rus: 48kHz 2ch 384Kbps
"MediaInfo"

Общее
Полное имя : Сердцеед DVD9\VIDEO_TS\VTS_09_1.VOB
Формат : MPEG-PS
Размер файла : 1000 Мбайт
Продолжительность : 18 м.
Режим общего битрейта : Переменный
Общий поток : 7421 Кбит/сек

Видео
Идентификатор : 224 (0xE0)
Формат : MPEG Video
Версия формата : Version 2
Профиль формата : Main@Main
Параметр BVOP формата : Да
Параметр матрицы формата : По умолчанию
Параметр GOP формата : M=3, N=12
Продолжительность : 18 м.
Вид битрейта : Переменный
Битрейт : 6441 Кбит/сек
Максимальный битрейт : 7500 Кбит/сек
Ширина : 720 пикселей
Высота : 576 пикселей
Соотношение сторон : 16:9
Частота кадров : 25,000 кадров/сек
Стандарт вещания : PAL
Цветовое пространство : YUV
Субдискретизация насыщенности : 4:2:0
Битовая глубина : 8 бит
Тип развёртки : Чересстрочная
Порядок развёртки : Верхнее поле первое
Метод сжатия : С потерями
Бит/(Пиксели*Кадры) : 0.621
Размер потока : 868 Мбайт (87%)

Аудио #1
Идентификатор : 189 (0xBD)-128 (0x80)
Формат : AC-3
Формат/Информация : Audio Coding 3
Расширение режима : CM (complete main)
Режим смешивания : DVD-Video
Продолжительность : 18 м.
Вид битрейта : Постоянный
Битрейт : 448 Кбит/сек
Каналы : 6 каналов
Расположение каналов : Front: L C R, Side: L R, LFE
Частота : 48,0 КГц
Битовая глубина : 16 бит
Метод сжатия : С потерями
Размер потока : 60,4 Мбайт (6%)

Аудио #2
Идентификатор : 189 (0xBD)-129 (0x81)
Формат : AC-3
Формат/Информация : Audio Coding 3
Расширение режима : CM (complete main)
Режим смешивания : DVD-Video
Продолжительность : 18 м.
Вид битрейта : Постоянный
Битрейт : 384 Кбит/сек
Каналы : 2 канала
Расположение каналов : Front: L R
Частота : 48,0 КГц
Битовая глубина : 16 бит
Метод сжатия : С потерями
Размер потока : 51,7 Мбайт (5%)

Меню
Свернуть
"Скриншоты"

Изображение
Изображение
Изображение
Свернуть
Раздача группы:
Изображение
В сети
Профиль  
Начать новую темуОтветить на тему  [ 1 сообщение ] 
Вы не можете начинать темы
Вы не можете отвечать на сообщения
Вы не можете редактировать свои сообщения
Вы не можете удалять свои сообщения