Правила форума

  • В этом разделе создание новых тем Запрещено.
  • Для создания новых тем пользуйтесь Корневым разделом DVD и HD фильмы.
Начать новую темуОтветить на тему  [ Сообщений: 2 ] 
Торрент файл
Размер: 4.37 GB • Зарегистрирован: 3 года 10 месяцев • Статус: Проверено
Скачан: 38 раз • Желающих скачать: 0 • Поблагодарили: 12 раз
 Раздают: 0  |  0 KB/s  ]   Качают: 0  |  0 KB/s  ] 
 Полного источника не было 3 года 2 месяца 
Сообщения
 Добавлено: 2013-01-22 18:18
Руководитель релиз-группы
Аватара пользователя
Стаж: 7 лет 5 месяцев
Возраст: 31
Сообщений: 3406
Спасибок: 46729
Лайков: 5
Изображение

Сейчас самое время
Now Is Good


Год выпуска: 2012
Страна: Великобритания
Слоган: «Живи. Люби. Мечтай.»
Жанр: мелодрама
Продолжительность: 01:38:38
Перевод: Профессиональный (полное дублирование)
Режиссер: Ол Паркер
Сценарий: Ол Паркер, Дженни Даунхэм
Продюсер: Грэхэм Броадбент, Питер Чернин, Малина ДеКарло, Дженни Даунхэм, Питер Хэмпден
Оператор: Эрик Уилсон
Композитор: Дастин О’Халлоран
В ролях: Дакота Фаннинг, Джереми Ирвин, Пэдди Консидайн, Оливия Уильямс, Кая Скоделарио, Роуз Лесли, Сара Хэдлэнд, Джо Коул, Рэки Айола, Патрик Балади, Франц Драмех, Сьюзэн Браун
Описание: Тессе семнадцать, и она хочет жить нормальной жизнью. Она мечтает о тех же вещах, что и все подростки. Но что делать, если времени осталось мало? Тесса принимает решение, прожить все, что отмерено, так, чтобы ни одна минута не пропала зря.
Девушка составляет список того, что обязательно нужно успеть: потерять невинность, попробовать наркотики, прыгнуть с парашютом, по-настоящему полюбить. Она шаг за шагом воплощает свои намерения. Но внезапно вспыхнувшее чувство к соседскому парню Адаму меняет все ее планы.
Изображение
MPAA: Изображение
Релиз: Изображение Раздача группы: Изображение
Качество: DVD5 (сжатый)
Формат: DVD Video
Видео: MPEG2; PAL 16:9 (720x576)
Аудио: Dolby AC3, 6 ch, 448 Kbps Russian
Субтитры: русские
Дополнительная информация :
Исходник : DVD9 (6.55 Гб) [лицензия, PAL 16:9]
Убрано : допы, реклама, заставки, предупреждения, English (Dolby AC3, 6 ch), Russian (DTS, 6 ch).
Сжатие фильма : 5.5 % сжатия (без учета ручного перераспределения битрейта, за счет большего сжатия конечных титров)
использовались программы
    DVDRemakePro
    Photoshop
    MuxMan
    Rebuilder и CCE (Cinema Craft Encoder), 5 проходов
    Работоспособность проверена на софтовом плеере Windows Media и бытовом LG
Свернуть
DVDInfo
    Title: Sejchas.samoe.vremja_2012_DVD5.[R.G.Daredevil]
    Size: 4.37 Gb ( 4 581 130,00 KBytes ) - DVD-5
    Enabled regions: 1, 2, 3, 4, 5, 6, 7, 8

    VTS_01 :
    Play Length: 00:00:00
    Video: PAL 4:3 (720x576) VBR
    Audio:
    Not specified (Dolby AC3, 2 ch)
    Not specified (Dolby AC3, 2 ch)
    Not specified (Dolby AC3, 2 ch)
    Subtitles:
    Not specified
    Not specified

    VTS_02 :
    Play Length: 00:00:00
    Video: PAL 16:9 (720x576) VBR, Auto Letterboxed
    Audio:
    Not specified (Dolby AC3, 2 ch)
    Not specified (Dolby AC3, 2 ch)
    Not specified (Dolby AC3, 2 ch)
    Subtitles:
    Not specified

    VTS_03 :
    Play Length: 00:00:00
    Video: PAL 16:9 (720x576) VBR, Auto Letterboxed
    Audio:
    Not specified (Dolby AC3, 2 ch)
    Not specified (Dolby AC3, 2 ch)
    Not specified (Dolby AC3, 2 ch)
    Subtitles:
    Not specified

    VTS_04 :
    Play Length: 00:00:00
    Video: PAL 16:9 (720x576) VBR, Auto Letterboxed
    Audio:
    Not specified (Dolby AC3, 2 ch)
    Not specified (Dolby AC3, 2 ch)
    Not specified (Dolby AC3, 2 ch)
    Subtitles:
    Not specified

    VTS_05 :
    Play Length: 00:00:00
    Video: PAL 16:9 (720x576) VBR, Auto Letterboxed
    Audio:
    Not specified (Dolby AC3, 2 ch)
    Not specified (Dolby AC3, 2 ch)
    Not specified (Dolby AC3, 2 ch)
    Subtitles:
    Not specified

    VTS_06 :
    Play Length: 01:38:38
    Video: PAL 16:9 (720x576) VBR, Auto Letterboxed
    Audio:
    Russian (Dolby AC3, 6 ch)
    Subtitles:
    Russian

    VTS_07 :
    Play Length: 00:00:00
    Video: PAL 16:9 (720x576) VBR, Auto Letterboxed
    Audio:
    Not specified (Dolby AC3, 6 ch)
    Subtitles:
    Not specified

    VTS_08 :
    Play Length: 00:00:00
    Video: PAL 16:9 (720x576) VBR, Auto Letterboxed
    Audio:
    Not specified (Dolby AC3, 2 ch)
    Subtitles:
    Not specified

    VTS_09 :
    Play Length: 00:00:00
    Video: PAL 16:9 (720x576) VBR, Auto Letterboxed
    Audio:
    Not specified (Dolby AC3, 2 ch)
    Subtitles:
    Not specified

    VTS_10 :
    Play Length: 00:00:00
    Video: PAL 16:9 (720x576) VBR, Auto Letterboxed
    Audio:
    Not specified (Dolby AC3, 2 ch)
    Subtitles:
    Not specified

    VTS_11 :
    Play Length: 00:00:00
    Video: PAL 16:9 (720x576) VBR, Auto Letterboxed
Свернуть
mediainfo
    Формат : MPEG-PS
    Размер файла : 1024 Мбайт
    Продолжительность : 22 м.
    Режим общего битрейта : Переменный
    Общий поток : 6389 Кбит/сек

    Видео
    Идентификатор : 224 (0xE0)
    Формат : MPEG Video
    Версия формата : Version 2
    Профиль формата : Main@Main
    Параметр BVOP формата : Да
    Параметр матрицы формата : Выборочная
    Продолжительность : 22 м.
    Вид битрейта : Переменный
    Битрейт : 5814 Кбит/сек
    Максимальный битрейт : 7560 Кбит/сек
    Ширина : 720 пикселей
    Высота : 576 пикселей
    Соотношение сторон : 16:9
    Частота кадров : 25,000 кадров/сек
    Стандарт вещания : PAL
    Цветовое пространство : YUV
    Субдискретизация насыщенности : 4:2:0
    Битовая глубина : 8 бит
    Тип развёртки : Прогрессивная
    Порядок развёртки : Нижнее поле первое
    Метод сжатия : С потерями
    Бит/(Пиксели*Кадры) : 0.561
    Размер потока : 932 Мбайт (91%)

    Аудио
    Идентификатор : 189 (0xBD)-128 (0x80)
    Формат : AC-3
    Формат/Информация : Audio Coding 3
    Расширение режима : CM (complete main)
    Режим смешивания : DVD-Video
    Продолжительность : 22 м.
    Вид битрейта : Постоянный
    Битрейт : 448 Кбит/сек
    Каналы : 6 каналов
    Расположение каналов : Front: L C R, Side: L R, LFE
    Частота : 48,0 КГц
    Битовая глубина : 16 бит
    Метод сжатия : С потерями
    Размер потока : 71,8 Мбайт (7%)

    Текст
    Идентификатор : 189 (0xBD)-32 (0x20)
    Формат : RLE
    Формат/Информация : Run-length encoding
    Режим смешивания : DVD-Video

    Меню
Свернуть
Знаете ли Вы, что...
  • Фильм основан на книге Дженни Даунхэм «Пока я жива».
  • Наоми Уоттс могла сыграть мать, но роль получила Оливия Уильямс.
  • В романе, по которому снят фильм, у персонажа Тессы каштановые волосы. Оливия Уильямс, которая играет мать Тессы, носила в фильме парик блондинки, так что Дакоте Фаннинг не пришлось менять цвет волос для своей роли.
Свернуть
Скриншоты

меню
Изображение

Изображение

Изображение

Изображение
Свернуть
Изображение

Изображение

Изображение

Изображение
Свернуть
Не в сети
Профиль  
 Добавлено: 2013-01-22 19:42 (спустя 1 час 23 минуты)
Модератор
Аватара пользователя
Стаж: 6 лет 10 месяцев
Возраст: 33
Сообщений: 5908
Спасибок: 61265
Лайков: 3540
Спасибо, качаю.
_________________
ИзображениеИзображение Изображение
Изображение
Не в сети
Профиль  
Начать новую темуОтветить на тему  [ Сообщений: 2 ] 
Вы не можете начинать темы
Вы не можете отвечать на сообщения
Вы не можете редактировать свои сообщения
Вы не можете удалять свои сообщения