Правила форума

  • В этом разделе создание новых тем Запрещено.
  • Для создания новых тем пользуйтесь Корневым разделом DVD и HD фильмы.
Начать новую темуОтветить на тему  [ Сообщений: 6 ] 
Торрент файл
Размер: 4.37 GB • Зарегистрирован: 4 года 7 месяцев • Статус: Проверено
Скачан: 680 раз • Желающих скачать: 0 • Поблагодарили: 109 раз
 Раздают: 0  |  0 KB/s  ]   Качают: 0  |  0 KB/s  ] 
 Полного источника не было 1 год 10 месяцев 
Сообщения
 Добавлено: 2012-04-24 02:41
DVD Release Group
Аватара пользователя
Стаж: 7 лет 1 месяц
Сообщений: 3550
Спасибок: 247138
Лайков: 1018
Шерлок Холмс: Игра теней

Sherlock Holmes: A Game of Shadows


Изображение


Год выпуска: 2011
Страна: США
Жанр: Боевик, триллер, криминал, детектив, приключения
Продолжительность: 02:19:10
Перевод: Профессиональный (полное дублирование)
Субтитры: Русские, английские, литовские, латвийские, эстонские, сербские, словацкие, хорватские, польские, иврит.
Режиссер: Гай Ричи
В ролях: Роберт Дауни мл., Джуд Лоу, Нуми Рапас, Джаред Харрис, Пол Андерсон, Стивен Фрай, Рэйчел МакАдамс, Келли Райлли, Джеральдин Джеймс, Эдди Марсан
Описание: 1891 год. В Вене и Страсбурге проходит серия терактов, организованных анархистами или националистами, а по всей Европе происходят таинственные убийства. Шерлок Холмс считает, что за всем этим стоит профессор Джеймс Мориарти — математический гений, автор знаменитых лекций и трудов.
Кинопоиск: 8.04 (46771)
IMDb: 7.6 (87909)
Дополнительно:
Исходник: DVD9 (6.35 Гб) [лицензия, PAL 16:9].
Убрано: бонусы, Polish (Dolby AC3, 6 ch), Ukrainian (Dolby AC3, 6 ch), заставки и предупреждение.
Сжатие фильма 21 % сжатия (без учета ручного перераспределения битрейта, за счет большего сжатия конечных титров).
Работоспособность проверена на софтовом плеере Windows Media и бытовом LG.
Качество: DVD5 (сжатый)
Формат: DVD Video
Видео кодек: MPEG2
Аудио кодек: AC3
Видео: 720x576 25fps 4075Kbps
Аудио:
Аудио Rus: 48kHz 6ch 384Kbps
Аудио Eng: 48kHz 6ch 384Kbps
"MediaInfo"
Формат : MPEG-PS
Размер файла : 1024 Мбайт
Продолжительность : 28 м.
Режим общего битрейта : Переменный
Общий поток : 4941 Кбит/сек

Видео
Идентификатор : 224 (0xE0)
Формат : MPEG Video
Версия формата : Version 2
Профиль формата : Main@Main
Параметр BVOP формата : Да
Параметр матрицы формата : Выборочная
Продолжительность : 28 м.
Вид битрейта : Переменный
Битрейт : 4075 Кбит/сек
Максимальный битрейт : 7531 Кбит/сек
Ширина : 720 пикселей
Высота : 576 пикселей
Соотношение сторон : 16:9
Частота кадров : 25,000 кадров/сек
Стандарт вещания : PAL
Цветовое пространство : YUV
Субдискретизация насыщенности : 4:2:0
Битовая глубина : 8 бит
Тип развёртки : Чересстрочная
Порядок развёртки : Верхнее поле первое
Метод сжатия : С потерями
Бит/(Пиксели*Кадры) : 0.393
Размер потока : 844 Мбайт (82%)

Аудио #1
Идентификатор : 189 (0xBD)-128 (0x80)
Формат : AC-3
Формат/Информация : Audio Coding 3
Расширение режима : CM (complete main)
Режим смешивания : DVD-Video
Продолжительность : 28 м.
Вид битрейта : Постоянный
Битрейт : 384 Кбит/сек
Каналы : 6 каналов
Расположение каналов : Front: L C R, Side: L R, LFE
Частота : 48,0 КГц
Битовая глубина : 16 бит
Метод сжатия : С потерями
Размер потока : 79,6 Мбайт (8%)

Аудио #2
Идентификатор : 189 (0xBD)-130 (0x82)
Формат : AC-3
Формат/Информация : Audio Coding 3
Расширение режима : CM (complete main)
Режим смешивания : DVD-Video
Продолжительность : 28 м.
Вид битрейта : Постоянный
Битрейт : 384 Кбит/сек
Каналы : 6 каналов
Расположение каналов : Front: L C R, Side: L R, LFE
Частота : 48,0 КГц
Битовая глубина : 16 бит
Метод сжатия : С потерями
Размер потока : 79,6 Мбайт (8%)

Меню
Свернуть

"Скриншоты"
Изображение
Изображение
Изображение
Изображение
Изображение
Изображение
Изображение
Изображение
Изображение
Изображение
Свернуть

Раздача группы:
Изображение
В сети
Профиль  
 Добавлено: 2012-05-06 16:08 (спустя 12 дней)
Стаж: 8 лет 6 месяцев
Сообщений: 1
ПЕРЕВОДА НЕТУ НАХЕРА ТАКОЕ ВЫКЛАДЫВАТЬ
Не в сети
Профиль  
 Добавлено: 2012-05-06 17:20 (спустя 1 час 11 минут)
DVD Release Group
Аватара пользователя
Стаж: 7 лет 1 месяц
Сообщений: 3550
Спасибок: 247138
Лайков: 1018
snake888
Не надо грубить, никто кроме вас не виноват, что вы не можете переключить на русский язык.
В сети
Профиль  
 Добавлено: 2012-05-07 08:00 (спустя 14 часов)
Аватара пользователя
Стаж: 7 лет 11 месяцев
Возраст: 43
Сообщений: 123
Спасибок: 4
Лайков: 2
Классный фильм! :ya_hoo_oo:
Не в сети
Профиль  
 Добавлено: 2012-05-08 18:51 (спустя 1 день 10 часов)
Аватара пользователя
Стаж: 7 лет 6 месяцев
Сообщений: 71
Спасибок: 25

snake888:

ПЕРЕВОДА НЕТУ НАХЕРА ТАКОЕ ВЫКЛАДЫВАТЬ
Человек зарегился 3 года назад чтоб однажды нахамить... :) Сколько ж выжидал-то...! :)
Не в сети
Профиль  
 Добавлено: 2012-05-29 18:02 (спустя 20 дней)
Аватара пользователя
Стаж: 8 лет 1 месяц
Возраст: 27
Сообщений: 1509
Спасибок: 227

Cyberface:

snake888:

ПЕРЕВОДА НЕТУ НАХЕРА ТАКОЕ ВЫКЛАДЫВАТЬ
Человек зарегился 3 года назад чтоб однажды нахамить... :) Сколько ж выжидал-то...! :)
:hi_hi_hi:
Не в сети
Профиль  
Начать новую темуОтветить на тему  [ Сообщений: 6 ] 
Вы не можете начинать темы
Вы не можете отвечать на сообщения
Вы не можете редактировать свои сообщения
Вы не можете удалять свои сообщения