Правила форума

  • В этом разделе создание новых тем Запрещено.
  • Для создания новых тем пользуйтесь Корневым разделом DVD и HD фильмы.
Начать новую темуОтветить на тему  [ Сообщений: 4 ] 
Торрент файл
Размер: 3.38 GB • Зарегистрирован: 2 года 10 месяцев • Статус: Проверено
Скачан: 21 раз • Желающих скачать: 0 • Поблагодарили: 15 раз
 Раздают: 0  |  0 KB/s  ]   Качают: 0  |  0 KB/s  ] 
 Полного источника не было 5 месяцев 17 дней 
Сообщения
 Добавлено: 2014-01-22 15:15
Аватара пользователя
Стаж: 4 года 1 месяц
Сообщений: 12
Спасибок: 268
Лайков: 2
Шесть ступеней ада / 6 Degrees of Hell

Изображение


Год выпуска: 2012
Страна: США (Brothers In Arms Productions)
Слоган: «Ад на Хэллоуин ...»
Жанр: Ужасы
Продолжительность: 01:26:18
Версия фильма: Unrated / Полная версия
Перевод: Профессиональный (двухголосый закадровый) НТВ+
Субтитры: Нет

Режиссёр: Джо Раффа
Сценарист: Брюс Смит
Продюсер: Джо Раффа, Брюс Смит, Дэн и Марло Амбросио
Оператор: Чарли Андерсон
Композитор: Джон Аварезе
В ролях: Кори Фельдман, Джилл Вилан, Никки Белл, Брайан Энтони Уилсон, Дэвид Дж. Боннер, Кайл Патрик Бреннан, Сьюзэн Моусес, Брайан Галлахер, Том МакКарти, Дэймон Бонетти, Брент Льюис, Джин Коннелли, Александр Манделл
Описание: Действие фильма происходит в небольшом городке штата Пенсильвания. Шесть человек оказываются в ловушке сверхъестественной бури, которой нужен лишь один из них…
Рейтинг MPAA: Рейтинг NC-17 (Лица, не достигшие 17 лет, на фильм не допускаются)
Мировая премьера: 24 августа 2012
Премьера в России: 24 августа 2012
Изображение 2.948 (177)
Изображение 2.70 (393)

Качество: DVD5
Формат: DVD Video
Видео: 720х576, MPEG Video, 5154 Кбит/сек, 25 кадров/сек, 0.497 bit/pixel
Аудио #1: AC-3, 6 каналов, 448 Кбит/сек [Профессиональный (двухголосый закадровый) НТВ+]
Субтитры: Нет
Скриншоты
Изображение
Изображение
Изображение
Изображение
Изображение
Изображение
Изображение
Изображение
Свернуть

MediaInfo
Общее
Формат : MPEG-PS
Размер файла : 1024 Мбайт
Режим общего битрейта : Переменный
Общий поток : 5715 Кбит/сек

Видео
Идентификатор : 224 (0xE0)
Формат : MPEG Video
Версия формата : Version 2
Профиль формата : Main@Main
Параметр BVOP формата : Да
Параметр матрицы формата : Выборочная
Параметр GOP формата : Variable
Продолжительность : 25 м.
Вид битрейта : Переменный
Битрейт : 5154 Кбит/сек
Максимальный битрейт : 8000 Кбит/сек
Ширина : 720 пикселей
Высота : 576 пикселей
Соотношение сторон : 16:9
Частота кадров : 25,000 кадров/сек
Стандарт вещания : PAL
Цветовое пространство : YUV
Субдискретизация насыщенности : 4:2:0
Битовая глубина : 8 бит
Тип развёртки : Прогрессивная
Метод сжатия : С потерями
Бит/(Пиксели*Кадры) : 0.497
Временной код первого кадра : 00:51:31:20
Оригинал временного кода : Group of pictures header
Размер потока : 923 Мбайт (90%)
Основные цвета : BT.601 PAL
Характеристики трансфера : BT.470 System B, BT.470 System G
Коэффициенты матрицы : BT.601

Аудио
Идентификатор : 189 (0xBD)-128 (0x80)
Формат : AC-3
Формат/Информация : Audio Coding 3
Расширение режима : CM (complete main)
Параметр Endianness формата : Big
Режим смешивания : DVD-Video
Продолжительность : 25 м.
Вид битрейта : Постоянный
Битрейт : 448 Кбит/сек
Каналы : 6 каналов
Расположение каналов : Front: L C R, Side: L R, LFE
Частота : 48,0 КГц
Битовая глубина : 16 бит
Метод сжатия : С потерями
Задержка видео : -360 мс.
Размер потока : 80,3 Мбайт (8%)
Свернуть

Изображение

Изображение
_________________
Изображение


Последний раз редактировалось xPEPSIx 2014-01-22 19:31, всего редактировалось 1 раз.
 vitso нравится это.
Не в сети
Профиль  
 Добавлено: 2014-01-22 15:18 (спустя 3 минуты)
Аватара пользователя
Стаж: 3 года 8 месяцев
Возраст: 23
Сообщений: 23
ну и как ? отпишитесь
Не в сети
Профиль  
 Добавлено: 2014-01-22 16:18 (спустя 59 минут)
Старший модератор Бизнес-форума
Аватара пользователя
Стаж: 8 лет 4 месяца
Сообщений: 2069
Спасибок: 167
Лайков: 179

online58:

ну и как ? отпишитесь
http://nnportal.org/tracker/zarubejnoe- ... 82683.html
_________________
ПК: Intel Core i5 4460 4*3.2GHz Socket 1150 / GeForce GTX 960 2Gb GDDR5 / Memory: DDR3 16 Gb 1600MHz / HDD: 1 TB / Windows 10 х64.
Не в сети
Профиль  
 Добавлено: 2014-01-22 18:40 (спустя 2 часа 21 минута)
Аватара пользователя
Стаж: 7 лет 8 месяцев
Сообщений: 938
Спасибок: 765
Лайков: 17

online58:

ну и как ? отпишитесь
О, господи, ну а рейтинг-то на что!
_________________
Кто сражается с чудовищами, тому следует остерегаться, чтобы самому при этом не стать чудовищем.И если долго всматриваться в бездну - бездна начнет всматриваться в тебя. (с) Фридрих Вильгельм Ницше
Не в сети
Профиль  
Начать новую темуОтветить на тему  [ Сообщений: 4 ] 
Вы не можете начинать темы
Вы не можете отвечать на сообщения
Вы не можете редактировать свои сообщения
Вы не можете удалять свои сообщения