Правила форума

  • В этом разделе создание новых тем Запрещено.
  • Для создания новых тем пользуйтесь Корневым разделом DVD и HD фильмы.
Начать новую темуОтветить на тему  [ Сообщений: 4 ] 
Торрент файл
Размер: 4.37 GB • Зарегистрирован: 4 года 11 месяцев • Статус: Проверено
Скачан: 268 раз • Желающих скачать: 0 • Поблагодарили: 51 раз
 Раздают: 0  |  0 KB/s  ]   Качают: 0  |  0 KB/s  ] 
 Полного источника не было 3 года 2 месяца 
Сообщения
 Добавлено: 2012-01-06 20:19
Руководитель релиз-группы
Аватара пользователя
Стаж: 7 лет 5 месяцев
Возраст: 31
Сообщений: 3406
Спасибок: 46729
Лайков: 5
Изображение

Шпион, выйди вон!
Tinker Tailor Soldier Spy


Год выпуска: 2011
Страна: Германия, Франция, Великобритания
Слоган: «Секретная информация будет раскрыта»
Жанр: триллер, детектив
Продолжительность: 02:02:08
Перевод: Профессиональный (полное дублирование)
Режиссер: Томас Альфредсон
Сценарий: Бриджет О’Коннор, Питер Строхан, Джон Ле Карре
Продюсер: Тим Беван, Эрик Феллнер, Робин Слово
Оператор: Хойте Ван Хойтема
Композитор: Альберто Иглесиас
В ролях: Гари Олдман, Колин Фёрт, Том Харди, Джон Хёрт, Тоби Джонс, Марк Стронг, Бенедикт Камбербэтч, Кьяран Хайндс, Константин Хабенский, Светлана Ходченкова
Бюджет: £20 000 000
Сборы в мире: $29 808 200
Описание: Многие сотрудники британской разведки догадывались, что в ее руководстве давно засел «крот», работающий на Россию. Но те, кто отваживался об этом заявлять открыто, почему-то оказывались в отставке. Остальные предпочитали помалкивать. Но подтверждение существования русского агента пришло с совсем неожиданной стороны. Начинается тайное расследование, возглавляемое находящимся в отставке Джорджем Смайли. И никто, включая высшее руководство разведки, не должен догадаться, что на крота снова объявлена охота.
Изображение
MPAA: Изображение
Релиз: Изображение Раздача группы: Изображение
Качество: DVD5 (сжатый)
Формат: DVD Video
Видео: MPEG2; PAL 16:9 (720x576)
Аудио #1: Dolby AC3, 6 ch, 384 Kbps Russian
Аудио #2: Dolby AC3, 6 ch, 384 Kbps English
Субтитры: украинские
Дополнительная информация :
Исходник : DVD9 (6.13 Гб) [лицензия, PAL 16:9]
Убрано : реклама, заставки, предупреждения
Сжатие фильма : 31.2 % сжатия (без учета ручного перераспределения битрейта, за счет большего сжатия конечных титров)
использовались программы
    DVDRemakePro
    Rebuilder и CCE (Cinema Craft Encoder), 5 проходов
    Работоспособность проверена на софтовом плеере Windows Media и бытовом LG
Свернуть
DVDInfo
    Title: Shpion.vyidi.von_2011_DVD5.[R.G.Daredevil]
    Size: 4.37 Gb ( 4 584 560,00 KBytes ) - DVD-5
    Enabled regions: 1, 2, 3, 4, 5, 6, 7, 8

    VTS_01 :
    Play Length: 00:00:00
    Video: PAL 4:3 (720x576) VBR

    VTS_02 :
    Play Length: 00:00:00
    Video: PAL 16:9 (720x576) VBR, Auto Letterboxed

    VTS_03 :
    Play Length: 02:02:08
    Video: PAL 16:9 (720x576) VBR, Auto Letterboxed
    Audio:
    Russian (Dolby AC3, 6 ch)
    English (Dolby AC3, 6 ch)
    Subtitles:
    Ukrainian

    VTS_04 :
    Play Length: 00:00:00+00:00:00
    Video: PAL 16:9 (720x576) VBR, Auto Letterboxed
    Audio:
    English (Dolby AC3, 2 ch)

    * Menus Information *

    VIDEO_TS Menu
    Video:
    NTSC 4:3 (720x480) VBR
    Auto Pan&Scan, Auto Letterboxed
    Russian Language Unit :
    Title Menu

    VTS_01 Menu
    Video:
    NTSC 4:3 (720x480) VBR
    Auto Pan&Scan, Auto Letterboxed
    Language Unit :
    Chapter (PTT) Menu

    VTS_02 Menu
    Video:
    NTSC 4:3 (720x480) VBR
    Auto Pan&Scan, Auto Letterboxed
    Language Unit :
    Chapter (PTT) Menu

    VTS_03 Menu
    Video:
    PAL 16:9 (720x576) VBR
    Auto Letterboxed
    Audio:
    Not specified (Dolby AC3, 2 ch)
    Russian Language Unit :
    Root Menu
    Audio Menu
    Chapter (PTT) Menu

    VTS_04 Menu
    Video:
    NTSC 4:3 (720x480) VBR
    Auto Pan&Scan, Auto Letterboxed
    Language Unit :
    Angle menu
    Language Unit :
Свернуть
mediainfo
    Формат : MPEG-PS
    Размер файла : 1024 Мбайт
    Продолжительность : 26 м.
    Режим общего битрейта : Переменный
    Общий поток : 5305 Кбит/сек

    Видео
    Идентификатор : 224 (0xE0)
    Формат : MPEG Video
    Версия формата : Version 2
    Профиль формата : Main@Main
    Параметр BVOP формата : Да
    Параметр матрицы формата : Выборочная
    Продолжительность : 26 м.
    Вид битрейта : Переменный
    Битрейт : 4431 Кбит/сек
    Максимальный битрейт : 8904 Кбит/сек
    Ширина : 720 пикселей
    Высота : 576 пикселей
    Соотношение сторон : 16:9
    Частота кадров : 25,000 кадров/сек
    Стандарт вещания : PAL
    Цветовое пространство : YUV
    Субдискретизация насыщенности : 4:2:0
    Битовая глубина : 8 бит
    Тип развёртки : Чересстрочная
    Порядок развёртки : Верхнее поле первое
    Метод сжатия : С потерями
    Бит/(Пиксели*Кадры) : 0.427
    Размер потока : 855 Мбайт (84%)

    Аудио #1
    Идентификатор : 189 (0xBD)-128 (0x80)
    Формат : AC-3
    Формат/Информация : Audio Coding 3
    Расширение режима : CM (complete main)
    Режим смешивания : DVD-Video
    Продолжительность : 26 м.
    Вид битрейта : Постоянный
    Битрейт : 384 Кбит/сек
    Каналы : 6 каналов
    Расположение каналов : Front: L C R, Side: L R, LFE
    Частота : 48,0 КГц
    Битовая глубина : 16 бит
    Метод сжатия : С потерями
    Размер потока : 74,1 Мбайт (7%)

    Аудио #2
    Идентификатор : 189 (0xBD)-129 (0x81)
    Формат : AC-3
    Формат/Информация : Audio Coding 3
    Расширение режима : CM (complete main)
    Режим смешивания : DVD-Video
    Продолжительность : 26 м.
    Вид битрейта : Постоянный
    Битрейт : 384 Кбит/сек
    Каналы : 6 каналов
    Расположение каналов : Front: L C R, Side: L R, LFE
    Частота : 48,0 КГц
    Битовая глубина : 16 бит
    Метод сжатия : С потерями
    Размер потока : 74,1 Мбайт (7%)

    Текст
    Идентификатор : 189 (0xBD)-32 (0x20)
    Формат : RLE
    Формат/Информация : Run-length encoding
    Режим смешивания : DVD-Video

    Меню

Свернуть
Знаете ли Вы, что...
  • Том Харди был утвержден на роль Рикки Тарра совершенно случайно. Продюсер фильма Тим Беван заявил, что актёр напоминает ему молодого Роберта Рэдфорда.
  • Чтобы подготовиться к роли Джорджа Смайли, Гэри Олдмен ел много патоки и заварного крема, чтоб отрастить «небольшой живот, как у людей пожилого возраста», наблюдал за игрой Алека Гиннесса в телесериале 1979 года, а также общался с «создателем» Смайли — Джоном Ле Карре.
  • Одним из первых кандидатов на роль Смайли был Джон Хёрт. Позже ему была отдана роль Контролёра.
  • Чтобы выбрать очки Джорджа Смайли, Олдмен посетил магазин Old Focals в Пасадене, где он померил сотни пар оправ, прежде чем нашел нужную.
  • На ранних стадиях подготовки к съёмкам, переговоры с кинокомпанией вел Дэвид Тьюлис.
  • В фильме должен был сниматься Майкл Фассбендер, но в результате был заменен Томом Харди.
  • В оригинале фильм называется «Лудильщик, портной, солдат, шпион» (Tinker Tailor Soldier Spy). Это слова детской считалки, профессии из нее в фильме являются кодовыми именами главных героев.
  • Роман Джона Ле Карре «Шпион, выйди вон!» уже экранизировался в 1979 году в виде телевизионного мини-сериала. Джорджа Смайли сыграл Алек Гиннесс.
Свернуть
Скриншоты

меню
Изображение
Изображение
Изображение
Свернуть
Изображение
Изображение
Изображение
Изображение
Свернуть


Последний раз редактировалось askboy 2012-01-06 21:46, всего редактировалось 1 раз.
Не в сети
Профиль  
 Добавлено: 2012-01-06 21:12 (спустя 52 минуты)
Аватара пользователя
Стаж: 5 лет
Сообщений: 13
Dayte pojalusta skorosty.
_________________
Nicu.
Не в сети
Профиль  
 Добавлено: 2012-01-09 00:05 (спустя 2 дня 2 часа)
Аватара пользователя
Стаж: 8 лет 8 месяцев
Возраст: 37
Сообщений: 126
Спасибок: 759
:(
Не в сети
Профиль  
 Добавлено: 2012-01-09 10:29 (спустя 10 часов)
Стаж: 8 лет 1 месяц
Сообщений: 16
Спасибок: 4
нутерный фильм, посмотрел пол часа и шпион - уйди вон)
Не в сети
Профиль  
Начать новую темуОтветить на тему  [ Сообщений: 4 ] 
Вы не можете начинать темы
Вы не можете отвечать на сообщения
Вы не можете редактировать свои сообщения
Вы не можете удалять свои сообщения