Правила форума

  • В этом разделе создание новых тем Запрещено.
  • Для создания новых тем пользуйтесь Корневым разделом DVD и HD фильмы.
Начать новую темуОтветить на тему  [ Сообщений: 2 ] 
Торрент файл
Размер: 3.64 GB • Зарегистрирован: 4 года 9 месяцев • Статус: Проверено
Скачан: 207 раз • Желающих скачать: 0 • Поблагодарили: 28 раз
 Раздают: 0  |  0 KB/s  ]   Качают: 0  |  0 KB/s  ] 
 Полного источника не было 2 года 11 месяцев 
Сообщения
 Добавлено: 2012-03-02 05:37
Руководитель релиз-группы
Аватара пользователя
Стаж: 7 лет 5 месяцев
Возраст: 31
Сообщений: 3406
Спасибок: 46729
Лайков: 5
Изображение

Шрамы
Paranormal Xperience


Год выпуска: 2011
Страна: Испания
Слоган: «Эксперименты с паранормальным продолжаются»
Жанр: ужасы, триллер
Продолжительность: 01:26:31
Перевод: Профессиональный (полное дублирование)
Режиссер: Sergi Vizcaino
Сценарий: Дэни Падро
Продюсер: Мерседес Гамеро, Хоакин Падро, Мар Тарганова
Оператор: Серджо Бартоли
Композитор: Марк Ваийо
В ролях: Амайя Саламанка, Макси Иглесиас, Эдуард Фарело, Луис Фернандез, Урсула Корберо, Мануэль Де Блас, Альба Рибас, Мигель Анхель Дженнер, Оскар Синела...
Бюджет: €3 200 000
Описание: Шестеро студентов медицинского института отправляются в заброшенную сеть пещер, где, по легенде, до сих пор блуждает призрак умершего доктора. Молодые люди уверены, что встречи с паранормальным в наш современный век - не более чем игра воображения. Да и экспедиция организована исключительно ради исследования мифов о человеческом подсознании. Но, оказавшись в пещерах, путешественники неожиданно начинают погибать один за другим самыми страшными способами...
Изображение
Релиз: Изображение Раздача группы: Изображение
Качество: DVD5 (сжатый)
Формат: DVD Video
Видео: MPEG2; PAL 16:9 (720x576)
Аудио #1: Dolby AC3, 6 ch, 384 Kbps Russian
Аудио #2: Dolby AC3, 2 ch, 192 Kbps Russian
Субтитры: русские
Дополнительная информация :
Исходник : DVD9 (6.92 Гб) [лицензия, PAL 16:9]
Убрано : 3D версия фильма
Сжатие фильма : нет
Изображение
использовались программы
    DVDRemakePro
    Работоспособность проверена на софтовом плеере Windows Media и бытовом LG
Свернуть
DVDInfo
    Title: Shramy_2011_DVD5.[R.G.Daredevil]
    Size: 3.64 Gb ( 3 820 552,00 KBytes ) - DVD-5
    Enabled regions: 1, 2, 3, 4, 5, 6, 7, 8

    VTS_01 :
    Play Length: 00:00:01+01:26:31+00:00:01+00:00:01+00:00:06+00:00:01
    Video: PAL 16:9 (720x576) VBR, Auto Letterboxed
    Audio:
    Russian (Dolby AC3, 6 ch)
    Russian (Dolby AC3, 2 ch)
    Subtitles:
    Russian

    VTS_02 :
    Play Length: 00:00:01+00:00:05+00:00:13
    Video: PAL 16:9 (720x576) VBR, Auto Letterboxed
    Audio:
    Russian (Dolby AC3, 6 ch)

    VTS_03 :
    Play Length: 00:00:01+00:01:41+00:00:01
    Video: PAL 16:9 (720x576) VBR, Auto Letterboxed
    Audio:
    Russian (Dolby AC3, 2 ch)

    VTS_04 :
    Play Length: 00:00:01+00:05:32+00:00:01+00:02:04+00:00:01
    Video: PAL 16:9 (720x576) VBR, Auto Letterboxed
    Audio:
    Russian (Dolby AC3, 2 ch)
Свернуть
mediainfo
    Формат : MPEG-PS
    Размер файла : 1024 Мбайт
    Продолжительность : 26 м.
    Общий поток : 5383 Кбит/сек

    Видео
    Идентификатор : 224 (0xE0)
    Формат : MPEG Video
    Версия формата : Version 2
    Профиль формата : Main@Main
    Параметр BVOP формата : Да
    Параметр матрицы формата : Выборочная
    Продолжительность : 26 м.
    Битрейт : 4700 Кбит/сек
    Максимальный битрейт : 6000 Кбит/сек
    Ширина : 720 пикселей
    Высота : 576 пикселей
    Соотношение сторон : 16:9
    Частота кадров : 25,000 кадров/сек
    Стандарт вещания : PAL
    Цветовое пространство : YUV
    Субдискретизация насыщенности : 4:2:0
    Битовая глубина : 8 бит
    Тип развёртки : Чересстрочная
    Порядок развёртки : Нижнее поле первое
    Метод сжатия : С потерями
    Бит/(Пиксели*Кадры) : 0.453
    Размер потока : 894 Мбайт (87%)

    Аудио #1
    Идентификатор : 189 (0xBD)-128 (0x80)
    Формат : AC-3
    Формат/Информация : Audio Coding 3
    Расширение режима : CM (complete main)
    Режим смешивания : DVD-Video
    Продолжительность : 26 м.
    Вид битрейта : Постоянный
    Битрейт : 384 Кбит/сек
    Каналы : 6 каналов
    Расположение каналов : Front: L C R, Side: L R, LFE
    Частота : 48,0 КГц
    Битовая глубина : 16 бит
    Метод сжатия : С потерями
    Размер потока : 73,0 Мбайт (7%)

    Аудио #2
    Идентификатор : 189 (0xBD)-129 (0x81)
    Формат : AC-3
    Формат/Информация : Audio Coding 3
    Расширение режима : CM (complete main)
    Режим смешивания : DVD-Video
    Продолжительность : 26 м.
    Вид битрейта : Постоянный
    Битрейт : 192 Кбит/сек
    Каналы : 2 канала
    Расположение каналов : Front: L R
    Частота : 48,0 КГц
    Битовая глубина : 16 бит
    Метод сжатия : С потерями
    Размер потока : 36,5 Мбайт (4%)

    Текст
    Идентификатор : 189 (0xBD)-32 (0x20)
    Формат : RLE
    Формат/Информация : Run-length encoding
    Режим смешивания : DVD-Video

    Меню
Свернуть
Скриншоты

меню
Изображение
Изображение
Изображение
Изображение
Свернуть
Изображение
Изображение
Изображение
Изображение
Свернуть
Не в сети
Профиль  
 Добавлено: 2012-04-13 11:04 (спустя 1 месяц 11 дней)
Стаж: 7 лет
Сообщений: 46
Фильм понравился! :a_g_a:
Не в сети
Профиль  
Начать новую темуОтветить на тему  [ Сообщений: 2 ] 
Вы не можете начинать темы
Вы не можете отвечать на сообщения
Вы не можете редактировать свои сообщения
Вы не можете удалять свои сообщения