Правила форума

  • В этом разделе создание новых тем Запрещено.
  • Для создания новых тем пользуйтесь Корневым разделом DVD и HD фильмы.
Начать новую темуОтветить на тему  [ 1 сообщение ] 
Торрент файл
Размер: 4.36 GB • Зарегистрирован: 5 лет 1 месяц • Статус: Проверено
Скачан: 163 раза • Желающих скачать: 0 • Поблагодарили: 24 раза
 Раздают: 0  |  0 KB/s  ]   Качают: 0  |  0 KB/s  ] 
 Полного источника не было 1 год 8 месяцев 
Сообщения
 Добавлено: 2011-10-22 04:11
Руководитель релиз-группы
Аватара пользователя
Стаж: 7 лет 5 месяцев
Возраст: 31
Сообщений: 3406
Спасибок: 46729
Лайков: 5
Изображение

Сколько у тебя? / Какой твой номер?
What's Your Number?


Год выпуска: 2011
Страна: США
Слоган: «У Элли было двадцать...»
Жанр: мелодрама, комедия
Продолжительность: 01:41:53
Перевод: Профессиональный (полное дублирование)
Режиссер: Марк Майлод
Сценарий: Гэбриэлль Аллан, Дженнифер Криттенден, Керин Боснак
Продюсер: Бо Флинн, Трип Винсон, Кэти Басби
Оператор: Джеймс Муро
Композитор: Аарон Зигман
В ролях: Анна Фэрис, Крис Эванс, Эри Грейнор, Блайт Даннер, Эд Бегли мл., Оливер Джексон-Коэн, Хезер Бёрнс, Элиза Куп, Кейт Симсес, Тика Самптер
Бюджет: $20 000 000
Сборы в мире: $23 497 116
Описание: Элли Дарлинг отправляется на поиски лучшего бывшего бойфренда в своей жизни, и это путешествие представляется ей абсолютно необходимым, после того, как она прочитала в журнале статью, предупреждающую о том, что люди, у которых в жизни было более 20 романов, упустили шанс найти свою настоящую любовь.
Элли - настоящая современная героиня. Она умная, привлекательная, забавная и романтичная - девушка, которая пытается понять, кто она на самом деле и с кем ей следует связать свою жизнь. Хотя к поиску бывшего лучшего кавалера ее подстегнула статья в журнале, это означает нечто более важное: у Элли наступил в жизни такой момент, когда она оказалась без мужа, без работы, и ее жизнь совсем не такая, о которой она мечтала. Она оказалась на перепутье, и это заставляет ее задуматься о том, что за последнее десятилетие она могла пропустить что-то, или кого-то, очень значимого в своей жизни.
Изображение
MPAA: Изображение
Релиз: Изображение Раздача группы: Изображение
Качество: DVD5 (сжатый)
Формат: DVD Video
Видео: MPEG2; PAL 16:9 (720x576)
Аудио #1: Dolby AC3, 6 ch, 384 Kbps Russian
Аудио #2: Dolby AC3, 6 ch, 384 Kbps Ukrainian
Субтитры: русские

Дополнительная информация :
Исходник : DVD9 (5.15 Гб) [лицензия, PAL 16:9]
Убрано : часть анонсов, Russian (DTS, 6 ch).
Сжатие фильма : нет
Изображение
использовались программы
DVDRemakePro
Photoshop
MuxMan
Работоспособность проверена на софтовом плеере Windows Media и бытовом LG
Свернуть
DVDInfo
    Title: Skolko.u.tebya_2011_DVD5.[R.G.Daredevil]
    Size: 4.36 Gb ( 4 572 002,00 KBytes ) - DVD-5
    Enabled regions: 1, 2, 3, 4, 5, 6, 7, 8

    VTS_01 :
    Play Length: 01:41:53
    Video: PAL 16:9 (720x576) VBR, Auto Letterboxed
    Audio:
    Russian (Dolby AC3, 6 ch)
    Russian (DTS, 6 ch)
    Subtitles:
    Russian
    Russian

    VTS_02 :
    Play Length: 00:00:27
    Video: PAL 16:9 (720x576) VBR, Auto Letterboxed
    Audio:
    Russian (Dolby AC3, 6 ch)

    VTS_03 :
    Play Length: 00:01:02+00:00:00
    Video: PAL 16:9 (720x576) VBR, Auto Letterboxed
    Audio:
    English (Dolby AC3, 2 ch)
    Subtitles:
    Russian
    Ukrainian

    VTS_04 :
    Play Length: 00:04:53
    Video: PAL 16:9 (720x576) VBR, Auto Letterboxed
    Audio:
    Not specified (Dolby AC3, 6 ch)
    Subtitles:
    Russian
    Russian

    * Menus Information *

    VIDEO_TS Menu
    Video:
    PAL 16:9 (720x576) VBR
    Auto Pan&Scan
    Language Unit :
    Title Menu

    VTS_01 Menu
    Video:
    PAL 16:9 (720x576) VBR
    Auto Pan&Scan
    Audio:
    Not specified (Dolby AC3, 2 ch)
    Language Unit :
    Root Menu

    VTS_02 Menu
    Video:
    PAL 16:9 (720x576) VBR
    Auto Letterboxed
    Language Unit :
    Root Menu

    VTS_03 Menu
    Video:
    PAL 16:9 (720x576) VBR
    Auto Letterboxed
    Language Unit :
    Root Menu

    VTS_04 Menu
    Video:
    PAL 16:9 (720x576) VBR
    Auto Letterboxed
    Language Unit :
    Root Menu
Свернуть
mediainfo
    Формат : MPEG-PS
    Размер файла : 1024 Мбайт
    Продолжительность : 25 м.
    Режим общего битрейта : Переменный
    Общий поток : 5675 Кбит/сек

    Видео
    Идентификатор : 224 (0xE0)
    Формат : MPEG Video
    Версия формата : Version 2
    Профиль формата : Main@Main
    Параметр BVOP формата : Да
    Параметр матрицы формата : Выборочная
    Параметр GOP формата : M=2, N=12
    Продолжительность : 25 м.
    Вид битрейта : Переменный
    Битрейт : 4794 Кбит/сек
    Максимальный битрейт : 7500 Кбит/сек
    Ширина : 720 пикселей
    Высота : 576 пикселей
    Соотношение сторон : 16:9
    Частота кадров : 25,000 кадров/сек
    Стандарт вещания : PAL
    Цветовое пространство : YUV
    Субдискретизация насыщенности : 4:2:0
    Битовая глубина : 8 бит
    Тип развёртки : Чересстрочная
    Порядок развёртки : Верхнее поле первое
    Метод сжатия : С потерями
    Бит/(Пиксели*Кадры) : 0.462
    Размер потока : 865 Мбайт (84%)

    Аудио #1
    Идентификатор : 189 (0xBD)-128 (0x80)
    Формат : AC-3
    Формат/Информация : Audio Coding 3
    Расширение режима : CM (complete main)
    Режим смешивания : DVD-Video
    Продолжительность : 25 м.
    Вид битрейта : Постоянный
    Битрейт : 384 Кбит/сек
    Каналы : 6 каналов
    Расположение каналов : Front: L C R, Side: L R, LFE
    Частота : 48,0 КГц
    Битовая глубина : 16 бит
    Метод сжатия : С потерями
    Размер потока : 69,3 Мбайт (7%)

    Аудио #2
    Идентификатор : 189 (0xBD)-130 (0x82)
    Формат : AC-3
    Формат/Информация : Audio Coding 3
    Расширение режима : CM (complete main)
    Режим смешивания : DVD-Video
    Продолжительность : 25 м.
    Вид битрейта : Постоянный
    Битрейт : 384 Кбит/сек
    Каналы : 6 каналов
    Расположение каналов : Front: L C R, Side: L R, LFE
    Частота : 48,0 КГц
    Битовая глубина : 16 бит
    Метод сжатия : С потерями
    Размер потока : 69,3 Мбайт (7%)

    Текст
    Идентификатор : 189 (0xBD)-32 (0x20)
    Формат : RLE
    Формат/Информация : Run-length encoding
    Режим смешивания : DVD-Video

    Меню
Свернуть
Скриншоты

меню
Изображение
Изображение
Изображение
Изображение
Свернуть
Изображение
Изображение
Изображение
Изображение
Свернуть
Не в сети
Профиль  
Начать новую темуОтветить на тему  [ 1 сообщение ] 
Вы не можете начинать темы
Вы не можете отвечать на сообщения
Вы не можете редактировать свои сообщения
Вы не можете удалять свои сообщения