Правила форума

  • В этом разделе создание новых тем Запрещено.
  • Для создания новых тем пользуйтесь Корневым разделом DVD и HD фильмы.
Начать новую темуОтветить на тему  [ Сообщений: 2 ] 
Торрент файл
Размер: 6.91 GB • Зарегистрирован: 3 года 10 месяцев • Статус: Проверено
Скачан: 50 раз • Желающих скачать: 0 • Поблагодарили: 16 раз
 Раздают: 0  |  0 KB/s  ]   Качают: 0  |  0 KB/s  ] 
 Полного источника не было 2 года 7 месяцев 
Сообщения
 Добавлено: 2013-01-24 23:54
Руководитель релиз-группы
Аватара пользователя
Стаж: 7 лет 4 месяца
Возраст: 31
Сообщений: 3407
Спасибок: 46729
Лайков: 5
Изображение

Слова
The Words


Год выпуска: 2012
Страна: США
Слоган: «There's more than one way to take a life.»
Жанр: драма, мелодрама
Продолжительность: 01:42:41
Перевод: Профессиональный (полное дублирование)
Режиссер: Брайан Клагман, Ли Стернтал
Сценарий: Брайан Клагман, Ли Стернтал
Продюсер: Майкл Бенаройя, Татьяна Келли, Джеймс М. Янг, Кассиан Элвис, Роуз Гангузза
Оператор: Антонио Кальваче
Композитор: Марсело Зарвос
В ролях: Брэдли Купер, Джереми Айронс, Оливия Уайлд, Зои Салдана, Деннис Куэйд, Брайан Клагман, Джон Ханна, Вито Филлипо, Майкл МакКин, Люсинда Дэвис, Дж.К. Симмонс, Джеймс Бэбсон
Бюджет: $6 000 000
Сборы в мире: $11 849 471
Описание: Рори Джэнсен - писатель, который наконец обретает долгожданную известность, но его роман-бестселлер оказывается написан другим человеком, которому он теперь должен заплатить высокую цену за украденные у него жизнь и работу.
Изображение
MPAA: Изображение
Релиз: Изображение Раздача группы: Изображение
Качество: DVD9
Формат: DVD Video
Видео: MPEG2; PAL 16:9 (720x576)
Аудио #1: Dolby AC3, 6 ch, 384 Kbps Russian
Аудио #2: Dolby AC3, 6 ch, 384 Kbps English
Аудио #3: DTS, 6 ch, 768 Kbps Russian
Субтитры: русские
Дополнительная информация : Анонсы, Полное издание: за кулисами фильма "Слова"
DVDInfo
    Title: Slova.2012.D.DVD.IRONCLUB
    Size: 6.91 Gb ( 7 243 800,00 KBytes ) - DVD-9
    Enabled regions: 1, 2, 3, 4, 5, 6, 7, 8

    VTS_01 :
    Play Length: 00:00:23
    Video: PAL 4:3 (720x576) VBR

    VTS_02 :
    Play Length: 00:08:10
    Video: PAL 16:9 (720x576) VBR, Auto Letterboxed
    Audio:
    Russian (Dolby AC3, 2 ch)
    English (Dolby AC3, 2 ch)

    VTS_03 :
    Play Length: 00:02:25
    Video: PAL 4:3 (720x576) VBR
    Audio:
    Russian (Dolby AC3, 2 ch)
    Russian (Dolby AC3, 2 ch)

    VTS_04 :
    Play Length: 00:02:29
    Video: PAL 4:3 (720x576) VBR
    Audio:
    Russian (Dolby AC3, 2 ch)
    Russian (Dolby AC3, 2 ch)

    VTS_05 :
    Play Length: 00:02:28
    Video: PAL 4:3 (720x576) VBR
    Audio:
    Russian (Dolby AC3, 2 ch)
    Russian (Dolby AC3, 2 ch)

    VTS_06 :
    Play Length: 01:38:17
    Video: PAL 16:9 (720x576) VBR, Auto Pan&Scan, Auto Letterboxed
    Audio:
    Russian (Dolby AC3, 6 ch)
    English (Dolby AC3, 6 ch)
    Russian (DTS, 5 ch)
    Subtitles:
    Russian
Свернуть
mediainfo
    Формат : MPEG-PS
    Размер файла : 1024 Мбайт
    Продолжительность : 16 м.
    Режим общего битрейта : Переменный
    Общий поток : 8687 Кбит/сек

    Видео
    Идентификатор : 224 (0xE0)
    Формат : MPEG Video
    Версия формата : Version 2
    Профиль формата : Main@Main
    Параметр BVOP формата : Да
    Параметр матрицы формата : По умолчанию
    Параметр GOP формата : M=3, N=12
    Продолжительность : 16 м.
    Вид битрейта : Переменный
    Битрейт : 6991 Кбит/сек
    Максимальный битрейт : 8000 Кбит/сек
    Ширина : 720 пикселей
    Высота : 576 пикселей
    Соотношение сторон : 16:9
    Частота кадров : 25,000 кадров/сек
    Стандарт вещания : PAL
    Цветовое пространство : YUV
    Субдискретизация насыщенности : 4:2:0
    Битовая глубина : 8 бит
    Тип развёртки : Прогрессивная
    Метод сжатия : С потерями
    Бит/(Пиксели*Кадры) : 0.674
    Размер потока : 824 Мбайт (80%)

    Аудио #1
    Идентификатор : 189 (0xBD)-128 (0x80)
    Формат : AC-3
    Формат/Информация : Audio Coding 3
    Расширение режима : CM (complete main)
    Режим смешивания : DVD-Video
    Продолжительность : 16 м.
    Вид битрейта : Постоянный
    Битрейт : 384 Кбит/сек
    Каналы : 6 каналов
    Расположение каналов : Front: L C R, Side: L R, LFE
    Частота : 48,0 КГц
    Битовая глубина : 16 бит
    Метод сжатия : С потерями
    Задержка видео : -80 мс.
    Размер потока : 45,3 Мбайт (4%)

    Аудио #2
    Идентификатор : 189 (0xBD)-129 (0x81)
    Формат : AC-3
    Формат/Информация : Audio Coding 3
    Расширение режима : CM (complete main)
    Режим смешивания : DVD-Video
    Продолжительность : 16 м.
    Вид битрейта : Постоянный
    Битрейт : 384 Кбит/сек
    Каналы : 6 каналов
    Расположение каналов : Front: L C R, Side: L R, LFE
    Частота : 48,0 КГц
    Битовая глубина : 16 бит
    Метод сжатия : С потерями
    Задержка видео : -80 мс.
    Размер потока : 45,3 Мбайт (4%)

    Аудио #3
    Идентификатор : 189 (0xBD)-138 (0x8A)
    Формат : DTS
    Формат/Информация : Digital Theater Systems
    Режим смешивания : DVD-Video
    Продолжительность : 16 м.
    Вид битрейта : Постоянный
    Битрейт : 755 Кбит/сек
    Каналы : 6 каналов
    Расположение каналов : Front: L C R, Side: L R, LFE
    Частота : 48,0 КГц
    Битовая глубина : 24 бит
    Метод сжатия : С потерями
    Задержка видео : -80 мс.
    Размер потока : 88,9 Мбайт (9%)

    Меню

Свернуть
Знаете ли Вы, что...
  • Розамунд Пайк пробовалась на роль, которую получила Оливия Уайлд.
  • Ли Стернтал и Брайан Клагман написали сценарий еще в 1999 году. Будучи друзьями Брэдли Купера, еще до того как к нему пришла известность после фильма «Мальчишник в Вегасе» (2009), они попросили его, чтобы он сыграл главную роль. Он согласился тогда и сдержал свое слово более чем 10 лет спустя.
  • Когда Рори и Дора спорят в переулке у ресторана, слова Рори не соответствуют движениям губ.
  • В сцене, где Рори и старик находятся в оранжерее, пуговица на воротнике старика то расстегнута, то застегнута.
  • Секундная стрелка на часах Рори останавливается на 40 секундах и не двигается, когда он пьяный в квартире.
  • В двух разных сценах в Нью-Йорке можно заметить грузовики Canada Post.
Свернуть
Скриншоты

меню
Изображение

Изображение

Изображение

Изображение
Свернуть
Изображение

Изображение

Изображение

Изображение

Изображение
Свернуть
Не в сети
Профиль  
 Добавлено: 2013-03-29 22:09 (спустя 2 месяца 4 дня)
Аватара пользователя
Стаж: 8 лет
Сообщений: 23
Фильм просто шикарен !!!!!! :co_ol:
Не в сети
Профиль  
Начать новую темуОтветить на тему  [ Сообщений: 2 ] 
Вы не можете начинать темы
Вы не можете отвечать на сообщения
Вы не можете редактировать свои сообщения
Вы не можете удалять свои сообщения