Правила форума

  • В этом разделе создание новых тем Запрещено.
  • Для создания новых тем пользуйтесь Корневым разделом DVD и HD фильмы.
Начать новую темуОтветить на тему  [ Сообщений: 2 ] 
Торрент файл
Размер: 3.88 GB • Зарегистрирован: 4 года 10 месяцев • Статус: Проверено
Скачан: 52 раза • Желающих скачать: 0 • Поблагодарили: 12 раз
 Раздают: 0  |  0 KB/s  ]   Качают: 0  |  0 KB/s  ] 
 Полного источника не было 3 года 3 месяца 
Сообщения
 Добавлено: 2012-01-22 20:47
Книголюб
Аватара пользователя
Стаж: 7 лет 2 месяца
Сообщений: 2823
Спасибок: 48830
Лайков: 73
Смертельное оскорбление
The Killing Jar

Изображение


Год выпуска: 2010
Страна: США (Mark Young Films)
Жанр: триллер, драма
Продолжительность: 01:26:20
Перевод: Профессиональный (многоголосый закадровый)

Режиссёр: Марк Янг
В ролях: Майкл Мэдсен, Хэролд Перрино, Эмбер Бенсон, Дэнни Трехо, Кевин Гейдж, Лью Темпл, Линдси Аксельссон, Джонатан Сачар, Патрик Дархэм, Талан Торрьеро
Описание: Незнакомец, вооруженный дробовиком, взял семь посетителей в заложники в отдаленном придорожном кафе. Вскоре обнаруживается, что один из заложников еще более опасен, чем их похититель…
Рейтинг MPAA: Рейтинг R (Подростки до 17 лет допускаются на фильм только в сопровождении одного из родителей)
Изображение 5.819 329

Качество: DVD5
Формат: DVD Video
Видео кодек: MPEG2
Аудио кодек: AC3 (Dolby Digital)
Видео: 720x576 (16:9) 25.00fps 9000kbps 6256 Кбит/с
Аудио #1: 48000Hz 6ch 256kbps
MediaInfo
General
Complete name : J:\Smertelnoe oskorblenie\VIDEO_TS\VTS_02_2.VOB
Format : MPEG-PS
File size : 1 024 MiB
Duration : 20mn 44s
Overall bit rate mode : Variable
Overall bit rate : 6 900 Kbps

Video
ID : 224 (0xE0)
Format : MPEG Video
Format version : Version 2
Format profile : Main@Main
Format settings, BVOP : Yes
Format settings, Matrix : Custom
Duration : 20mn 44s
Bit rate mode : Variable
Bit rate : 6 507 Kbps
Maximum bit rate : 9 000 Kbps
Width : 720 pixels
Height : 576 pixels
Display aspect ratio : 16:9
Frame rate : 25.000 fps
Standard : PAL
Color space : YUV
Chroma subsampling : 4:2:0
Bit depth : 8 bits
Scan type : Interlaced
Scan order : Top Field First
Compression mode : Lossy
Bits/(Pixel*Frame) : 0.628
Stream size : 965 MiB (94%)

Audio
ID : 189 (0xBD)-128 (0x80)
Format : AC-3
Format/Info : Audio Coding 3
Mode extension : CM (complete main)
Muxing mode : DVD-Video
Duration : 20mn 44s
Bit rate mode : Constant
Bit rate : 256 Kbps
Channel(s) : 6 channels
Channel positions : Front: L C R, Side: L R, LFE
Sampling rate : 48.0 KHz
Bit depth : 16 bits
Compression mode : Lossy
Delay relative to video : -216ms
Stream size : 38.0 MiB (4%)

Menu


Свернуть

Скриншоты
Изображение
Изображение
Изображение
Изображение
Свернуть
Не в сети
Профиль  
 Добавлено: 2012-02-11 14:26 (спустя 19 дней)
Аватара пользователя
Стаж: 7 лет 6 месяцев
Возраст: 51
Сообщений: 1783
Лайков: 1403
Фильм безусловно хорош. Даже понятно, как за такие скромные деньги сняли такой крутой экшн-детектив (пожалуй, это определение подойдет к фильму лучше всего - здесь убийца сам занимается раскрытием чужого преступления и мочит всех, кто ему как-то не понравился, а не понравились ему все). Хорошие актеры (просто созвездие, не один только Мэдсен) и полное отсутствие спецэффектов, гигантских декораций и съемок на свежем воздухе. Вот как надо снимать: минималистски, но мастерски! И нашим "мастерам" нужно этому учиться - денег вбухивают тонны, а эффекта выходит на пять копеек. В общем, фильма отличная, получил удовольствие. :co_ol:
Не в сети
Профиль  
Начать новую темуОтветить на тему  [ Сообщений: 2 ] 
Вы не можете начинать темы
Вы не можете отвечать на сообщения
Вы не можете редактировать свои сообщения
Вы не можете удалять свои сообщения