Правила форума

  • В этом разделе создание новых тем Запрещено.
  • Для создания новых тем пользуйтесь Корневым разделом DVD и HD фильмы.
Начать новую темуОтветить на тему  [ Сообщений: 4 ] 
Торрент файл
Размер: 4.34 GB • Зарегистрирован: 4 года 11 месяцев • Статус: Проверено
Скачан: 221 раз • Желающих скачать: 0 • Поблагодарили: 35 раз
 Раздают: 0  |  0 KB/s  ]   Качают: 0  |  0 KB/s  ] 
 Полного источника не было 1 год 8 месяцев 
Сообщения
 Добавлено: 2011-12-23 14:52
Руководитель релиз-группы
Аватара пользователя
Стаж: 7 лет 4 месяца
Возраст: 31
Сообщений: 3407
Спасибок: 46729
Лайков: 5
Изображение

Соблазнитель
Kokowaah


Год выпуска: 2011
Страна: Германия
Жанр: мелодрама, комедия
Продолжительность: 02:01:23
Перевод: Профессиональный (полное дублирование)
Режиссер: Тиль Швайгер
Сценарий: Бела Яржик, Тиль Швайгер
Продюсер: Тиль Швайгер, Томас Циклер, Бела Яржик
Оператор: Кристоф Валь
Композитор: Дирк Райхардт, Мирко Шаффер, Мартин Тодшероу
В ролях: Тиль Швайгер, Эмма Швайгер, Джасмин Джерат, Сэмюэл Финци, Нуман Акар, Мерет Беккер, Анна-Софи Брист, Фридерике Кемптер, Торстен Кюнстлер
Бюджет: €5 650 000
Сборы в мире: $43 000 000
Описание: Писатель Генри страдает от неразделённой любви и творческого кризиса. Как снег на голову на него сваливается предложение о работе над сценарием киноленты, в которой примет участие его бывшая подруга Катарина, в которую он влюблён и поныне. Возникает надежда на второй шанс, но появление восьмилетней Магдалены всё меняет.
Изображение
Релиз: Изображение Раздача группы: Изображение
Качество: DVD5 (сжатый)
Формат: DVD Video
Видео: MPEG2; PAL 16:9 (720x576)
Аудио: Dolby AC3, 6 ch, 448 Kbps Russian
Субтитры: русские
Дополнительная информация :
Исходник : DVD9 (7.79 Гб) [лицензия, PAL 16:9]
Убрано : часть допов, реклама, заставки, предупреждения, Russian (DTS, 5 ch), Deutsch (Dolby AC3, 6 ch)
Сжатие фильма : нет
Изображение
использовались программы
    DVDRemakePro
    Photoshop
    MuxMan
    Работоспособность проверена на софтовом плеере Windows Media и бытовом LG
Свернуть
DVDInfo
    Title: Soblaznitel_2011_DVD5.[R.G.Daredevil]
    Size: 4.34 Gb ( 4 553 564,00 KBytes ) - DVD-5
    Enabled regions: 1, 2, 3, 4, 5, 6, 7, 8

    VTS_01 :
    Play Length: 00:00:00
    Video: PAL 4:3 (720x576) VBR
    Subtitles:
    English
    English

    VTS_02 :
    Play Length: 00:00:00
    Video: PAL 16:9 (720x576) VBR, Auto Letterboxed
    Subtitles:
    Not specified

    VTS_03 :
    Play Length: 00:00:00
    Video: PAL 16:9 (720x576) VBR, Auto Letterboxed
    Audio:
    Not specified (Dolby AC3, 6 ch)
    Not specified (Dolby AC3, 6 ch)
    Not specified (Dolby AC3, 6 ch)
    Subtitles:
    Not specified

    VTS_04 :
    Play Length: 00:00:00
    Video: PAL 16:9 (720x576) VBR, Auto Letterboxed
    Audio:
    Not specified (Dolby AC3, 6 ch)
    Not specified (Dolby AC3, 6 ch)
    Not specified (Dolby AC3, 6 ch)
    Subtitles:
    Not specified

    VTS_05 :
    Play Length: 02:01:23
    Video: PAL 16:9 (720x576) VBR, Auto Letterboxed
    Audio:
    Russian (Dolby AC3, 6 ch)
    Subtitles:
    Russian

    VTS_06 :
    Play Length: 00:00:00
    Video: PAL 16:9 (720x576) VBR, Auto Letterboxed
    Audio:
    Not specified (Dolby AC3, 2 ch)
    Subtitles:
    Not specified

    VTS_07 :
    Play Length: 00:00:00
    Video: PAL 16:9 (720x576) VBR, Auto Letterboxed
    Audio:
    Not specified (Dolby AC3, 2 ch)
    Subtitles:
    Not specified

    VTS_08 :
    Play Length: 00:00:00
    Video: PAL 16:9 (720x576) VBR, Auto Letterboxed
    Audio:
    Not specified (Dolby AC3, 2 ch)
    Subtitles:
    Not specified

    VTS_09 :
    Play Length: 00:00:00
    Video: PAL 16:9 (720x576) VBR, Auto Letterboxed
    Audio:
    Not specified (Dolby AC3, 2 ch)
    Subtitles:
    Not specified

    VTS_10 :
    Play Length: 00:00:00
    Video: PAL 16:9 (720x576) VBR, Auto Letterboxed
    Audio:
    Not specified (Dolby AC3, 2 ch)
    Subtitles:
    Not specified

    VTS_11 :
    Play Length: 00:00:00
    Video: PAL 16:9 (720x576) VBR, Auto Letterboxed
    Audio:
    Not specified (Dolby AC3, 2 ch)
    Subtitles:
    Not specified

    VTS_12 :
    Play Length: 00:00:00
    Video: PAL 16:9 (720x576) VBR, Auto Letterboxed
    Audio:
    Not specified (Dolby AC3, 2 ch)
    Subtitles:
    Not specified

    VTS_13 :
    Play Length: 00:00:00
    Video: PAL 16:9 (720x576) VBR, Auto Letterboxed
    Audio:
    Not specified (Dolby AC3, 2 ch)

    VTS_14 :
    Play Length: 00:00:00
    Video: PAL 16:9 (720x576) VBR, Auto Letterboxed
    Audio:
    Not specified (Dolby AC3, 2 ch)

    VTS_15 :
    Play Length: 00:00:00
    Video: PAL 16:9 (720x576) VBR, Auto Letterboxed
    Audio:
    Not specified (Dolby AC3, 2 ch)

    VTS_16 :
    Play Length: 00:00:20
    Video: PAL 16:9 (720x576) VBR, Auto Letterboxed
    Audio:
    Not specified (Dolby AC3, 2 ch)

    VTS_17 :
    Play Length: 00:00:25
    Video: PAL 16:9 (720x576) VBR, Auto Letterboxed
    Audio:
    Not specified (Dolby AC3, 2 ch)
Свернуть
mediainfo
    Формат : MPEG-PS
    Размер файла : 1024 Мбайт
    Продолжительность : 28 м.
    Режим общего битрейта : Переменный
    Общий поток : 5056 Кбит/сек

    Видео
    Идентификатор : 224 (0xE0)
    Формат : MPEG Video
    Версия формата : Version 2
    Профиль формата : Main@Main
    Параметр BVOP формата : Да
    Параметр матрицы формата : По умолчанию
    Параметр GOP формата : M=3, N=12
    Продолжительность : 28 м.
    Вид битрейта : Переменный
    Битрейт : 4507 Кбит/сек
    Максимальный битрейт : 7000 Кбит/сек
    Ширина : 720 пикселей
    Высота : 576 пикселей
    Соотношение сторон : 16:9
    Частота кадров : 25,000 кадров/сек
    Стандарт вещания : PAL
    Цветовое пространство : YUV
    Субдискретизация насыщенности : 4:2:0
    Битовая глубина : 8 бит
    Тип развёртки : Прогрессивная
    Метод сжатия : С потерями
    Бит/(Пиксели*Кадры) : 0.435
    Размер потока : 913 Мбайт (89%)

    Аудио
    Идентификатор : 189 (0xBD)-128 (0x80)
    Формат : AC-3
    Формат/Информация : Audio Coding 3
    Расширение режима : CM (complete main)
    Режим смешивания : DVD-Video
    Продолжительность : 28 м.
    Вид битрейта : Постоянный
    Битрейт : 448 Кбит/сек
    Каналы : 6 каналов
    Расположение каналов : Front: L C R, Side: L R, LFE
    Частота : 48,0 КГц
    Битовая глубина : 16 бит
    Метод сжатия : С потерями
    Размер потока : 90,7 Мбайт (9%)

    Текст
    Идентификатор : 189 (0xBD)-32 (0x20)
    Формат : RLE
    Формат/Информация : Run-length encoding
    Режим смешивания : DVD-Video

    Меню
Свернуть
Знаете ли Вы, что...
  • Во время съемок необходимо было соблюдать закон, согласно которому Эмма могла работать не больше 3 часов в день.
  • Школа маленькой Магдалены в фильме на самом деле – это административное здание в квартале особняков Потсдама, в котором 20 лет назад размещалась русская армия.
Свернуть
Скриншоты

меню
Изображение
Изображение
Изображение
Изображение
Изображение
Свернуть
Изображение
Изображение
Изображение
Изображение
Свернуть
Не в сети
Профиль  
 Добавлено: 2011-12-23 16:50 (спустя 1 час 58 минут)
Инквизитор
Аватара пользователя
Стаж: 8 лет 8 месяцев
Сообщений: 3753
Спасибок: 28360
Лайков: 9
Нравиться актер, думаю, что фильм достойный :)
Не в сети
Профиль  
 Добавлено: 2011-12-23 20:28 (спустя 3 часа)
Стаж: 7 лет
Сообщений: 42
Лайков: 1
ТОже качаю из-за Швайгера )))
Не в сети
Профиль  
 Добавлено: 2012-03-23 21:05 (спустя 3 месяца)
Аватара пользователя
Стаж: 6 лет 11 месяцев
Сообщений: 355
Спасибок: 1406
афигенный фильм
Не в сети
Профиль  
Начать новую темуОтветить на тему  [ Сообщений: 4 ] 
Вы не можете начинать темы
Вы не можете отвечать на сообщения
Вы не можете редактировать свои сообщения
Вы не можете удалять свои сообщения