Правила форума

  • В этом разделе создание новых тем Запрещено.
  • Для создания новых тем пользуйтесь Корневым разделом DVD и HD фильмы.
Начать новую темуОтветить на тему  [ Сообщений: 3 ] 
Торрент файл
Размер: 7.76 GB • Зарегистрирован: 5 лет 9 месяцев • Статус: Проверено
Скачан: 123 раза • Желающих скачать: 0 • Поблагодарили: 9 раз
 Раздают: 0  |  0 KB/s  ]   Качают: 0  |  0 KB/s  ] 
 Полного источника не было 9 месяцев 
Сообщения
 Добавлено: 2011-02-23 11:14
Аватара пользователя
Стаж: 6 лет 9 месяцев
Возраст: 21
Сообщений: 151
Спасибок: 1820
Лайков: 4
Социальная сеть / The Social Network

Изображение


Страна: США
Жанр: Драма, биография, история
Год выпуска: 2010
Продолжительность: 02:00:27
Перевод: Профессиональный (дублированный)
Cубтитры: русские форсированные, русские, английские
Оригинальная аудиодорожка: английская

Режиссер:
Дэвид Финчер / David Fincher
В ролях: Джесси Айзенберг, Эндрю Гарфилд, Джастин Тимберлэйк, Эрми Хаммер, Макс Мингелла, Руни Мара, Брайан Бартер, Дастин Фицсаймонс, Джозеф Маццелло, Патрик Мэпл
Описание: В фильме рассказывается история создания одной из самых популярных в Интернете социальных сетей — Facebook. Оглушительный успех этой сети среди пользователей по всему миру навсегда изменил жизнь студентов-однокурсников гарвардского университета, которые основали ее в 2004 году и за несколько лет стали самыми молодыми мультимиллионерами в США.

Тип релиза: DVD9 (Custom)
Контейнер: DVD-Video
Видео кодек: MPEG2
Аудио кодек: AC3

Видео: NTSC 720х480 (16:9) VBR
Аудио: Профессиональный (дублированный) (Dolby AC3, 6 ch, 448 Kbps)
Аудио 2: Английский (Dolby AC3, 6 ch, 448 Kbps)

MI
Общее
Полное имя : D:\фильмы\Социальная сеть DVD9\VIDEO_TS\VTS_01_1.VOB
Формат : MPEG-PS
Размер файла : 1024 Мбайт
Продолжительность : 16 м.
Общий поток : 8780 Кбит/сек

Видео
Идентификатор : 224 (0xE0)
Формат : MPEG Video
Версия формата : Version 2
Профиль формата : Main@Main
Параметр BVOP формата : Да
Параметр матрицы формата : По умолчанию
Продолжительность : 16 м.
Вид битрейта : Переменный
Битрейт : 7709 Кбит/сек
Номинальный битрейт : 8400 Кбит/сек
Ширина : 720 пикс.
Высота : 480 пикс.
Соотношение сторон : 16:9
Частота кадров : 23,976 кадр/сек
Стандарт вещания : NTSC
Цветовое пространство : YUV
Подвыборка цветности : 4:2:0
Битовая глубина : 8 бит
Тип развёртки : Прогрессивная
Порядок развёртки : 2:3 Pulldown
Метод сжатия : С потерями
Бит/(Пиксели*Кадры) : 0.930
Размер потока : 899 Мбайт (88%)

Аудио #1
Идентификатор : 128 (0x80)
Формат : AC-3
Формат/Информация : Audio Coding 3
Расширение режима : CM (complete main)
Продолжительность : 16 м.
Вид битрейта : Постоянный
Битрейт : 448 Кбит/сек
Канал(ы) : 6 канала(ов)
Расположение каналов : Front: L C R, Side: L R, LFE
Частота : 48,0 КГц
Битовая глубина : 16 бит
Метод сжатия : С потерями
Размер потока : 52,2 Мбайт (5%)

Аудио #2
Идентификатор : 129 (0x81)
Формат : AC-3
Формат/Информация : Audio Coding 3
Расширение режима : CM (complete main)
Продолжительность : 16 м.
Вид битрейта : Постоянный
Битрейт : 448 Кбит/сек
Канал(ы) : 6 канала(ов)
Расположение каналов : Front: L C R, Side: L R, LFE
Частота : 48,0 КГц
Битовая глубина : 16 бит
Метод сжатия : С потерями
Размер потока : 52,2 Мбайт (5%)
Свернуть

Программы, используемые при создание этого релиза
видео
Canopus Procoder - конвертация видео
AviSynth 2.5 - обработка видео
DGIndexNV - индексирование

програмы для разборки/сборки ДВД
PgcDemux - разборка DVD на потоки
tsMuxeR - разборка BD на потоки
MuxMan - сборка потоков в DVD

работа со звуком
DelayCut - синхронизация звука
Tranzcode - разборка оригинальной дорожки
Vegas Pro 10 - сборка АС3 дорожки

работа с субтитрами
SUPread - сохранение субтитров в BMP
ABBYY FineReader 10 - распознание графических субтитров
Forced Subs Creator - сборка субтитров в srt
Subtitle Workshop - сохранение в SSA формат
MaestroSBT - рендеринг субтитров в формат SST+BMP
DVDSubEdit - корректировка таймингов и цветокоррекция субтитров

работа с меню и реавторинг
DVDReMakePro - реавторинг диска
Adobe Photoshop - графическое редактирование меню
Свернуть

script.avs
LoadPlugin("C:\Program Files (x86)\AviSynth 2.5\plugins\DGDecodeNV.dll")
DGSource("D:\BD to DVD9\MKV_Temp\00011.track_4113.dgi")
LoadPlugin("D:\BD to DVD9\programs\autoyuy2\AutoYUY2.dll") #более медленный, но качественный инструмент конверсии цветового пространства
AutoYUY2()
#Coloryuv(analyze=true) #проверка, цветового диапазона
LoadPlugin("D:\BD to DVD9\programs\ColorMatrix\ColorMatrix.dll")
ColorMatrix(mode="Rec.709->Rec.601", inputFR=false, clamp=0) #корректировка цветовой шкалы, если проверка показывает 16-235
#AssumeFPS("ntsc_film")
BicubicResize(720, 480, 0, 0.5) #ресайз методом Catmull-Rom spline
#AddBorders (0,0,0,0) #bbb=00
Свернуть


Скриншоты меню
Изображение
Изображение
Свернуть

Скриншоты
Изображение
Изображение
Изображение
Свернуть
Не в сети
Профиль  
 Добавлено: 2011-03-07 10:52 (спустя 11 дней)
Стаж: 8 лет 7 месяцев
Сообщений: 32
Спасибок: 242
Лайков: 2
Очень любопытный фильм! Только...всё это на реальных событиях?)
Не в сети
Профиль  
 Добавлено: 2011-03-07 14:50 (спустя 3 часа)
Аватара пользователя
Стаж: 6 лет 9 месяцев
Возраст: 21
Сообщений: 151
Спасибок: 1820
Лайков: 4

Roslov:

Очень любопытный фильм! Только...всё это на реальных событиях?)
вроде бы,да :ne_znayu:
Не в сети
Профиль  
Начать новую темуОтветить на тему  [ Сообщений: 3 ] 
Вы не можете начинать темы
Вы не можете отвечать на сообщения
Вы не можете редактировать свои сообщения
Вы не можете удалять свои сообщения