Правила форума

  • В этом разделе создание новых тем Запрещено.
  • Для создания новых тем пользуйтесь Корневым разделом DVD и HD фильмы.
Начать новую темуОтветить на тему  [ 1 сообщение ] 
Торрент файл
Размер: 3.93 GB • Зарегистрирован: 4 года 3 месяца • Статус: Проверено
Скачан: 262 раза • Желающих скачать: 0 • Поблагодарили: 46 раз
 Раздают: 0  |  0 KB/s  ]   Качают: 0  |  0 KB/s  ] 
 Полного источника не было 1 год 10 месяцев 
Сообщения
 Добавлено: 2012-08-16 22:43
DVD Release Group
Аватара пользователя
Стаж: 7 лет 1 месяц
Сообщений: 3545
Спасибок: 246961
Лайков: 1018
Солдаты удачи

Soldiers of Fortune


Изображение


Год выпуска: 2012
Страна: США / Globus-film, Jeff Most Productions, Most / Rice Films
Жанр: Боевик
Продолжительность: 01:32:08
Перевод: Профессиональный (полное дублирование)
Cубтитры: Нет
Режиссер: Максим Коростышевский
В ролях: Шон Бин, Кристиан Слэйтер, Доминик Монахэн, Винг Реймз, Джеймс Кромуэлл, Фредди Родригес, Колм Мини, Райан Доноху, Чарли Бьюли, Сара Анн Шультс
Описание: Миллионеры-адреналиноманы, которые уже взяли от жизни все, но хотят еще большего. Все они: банкир с Уолл-Стрит, гений видео игр, русский алюминиевый магнат, международный торговец оружием и один из основателей мобильной связи. За собственные деньги они отправляются на войну, чтобы почувствовать ее настоящий вкус и получить новую дозу адреналина. Но с самого начала все идет не так. Иллюзия игры рушится, как только миллионеры попадают на остров. При высадке их лодки тонут, а охрана — убита.
Кинопоиск: 4.6 (1233)
IMDb: 4.3 (1728)
Дополнительно: Нет
Качество: DVD5
Формат: DVD Video
Видео кодек: MPEG2
Аудио кодек: AC3
Видео: 720х576 25fps 5749Kbps
Аудио: 48kHz 6ch 448Kbps
"MediaInfo"
Формат : MPEG-PS
Размер файла : 1024 Мбайт
Продолжительность : 22 м.
Режим общего битрейта : Переменный
Общий поток : 6322 Кбит/сек

Видео
Идентификатор : 224 (0xE0)
Формат : MPEG Video
Версия формата : Version 2
Профиль формата : Main@Main
Параметр BVOP формата : Да
Параметр матрицы формата : Выборочная
Продолжительность : 22 м.
Вид битрейта : Переменный
Битрейт : 5749 Кбит/сек
Максимальный битрейт : 8500 Кбит/сек
Ширина : 720 пикселей
Высота : 576 пикселей
Соотношение сторон : 16:9
Частота кадров : 25,000 кадров/сек
Стандарт вещания : PAL
Цветовое пространство : YUV
Субдискретизация насыщенности : 4:2:0
Битовая глубина : 8 бит
Тип развёртки : Прогрессивная
Метод сжатия : С потерями
Бит/(Пиксели*Кадры) : 0.554
Размер потока : 931 Мбайт (91%)

Аудио
Идентификатор : 189 (0xBD)-128 (0x80)
Формат : AC-3
Формат/Информация : Audio Coding 3
Расширение режима : CM (complete main)
Режим смешивания : DVD-Video
Продолжительность : 22 м.
Вид битрейта : Постоянный
Битрейт : 448 Кбит/сек
Каналы : 6 каналов
Расположение каналов : Front: L C R, Side: L R, LFE
Частота : 48,0 КГц
Битовая глубина : 16 бит
Метод сжатия : С потерями
Размер потока : 72,5 Мбайт (7%)

Меню
Свернуть

"Скриншоты"
Изображение
Изображение
Изображение
Изображение
Изображение
Изображение
Изображение
Свернуть

Раздача группы:
Изображение
В сети
Профиль  
Начать новую темуОтветить на тему  [ 1 сообщение ] 
Вы не можете начинать темы
Вы не можете отвечать на сообщения
Вы не можете редактировать свои сообщения
Вы не можете удалять свои сообщения