Правила форума

  • В этом разделе создание новых тем Запрещено.
  • Для создания новых тем пользуйтесь Корневым разделом DVD и HD фильмы.
Начать новую темуОтветить на тему  [ Сообщений: 2 ] 
Торрент файл
Размер: 4.37 GB • Зарегистрирован: 4 года 7 месяцев • Статус: Проверено
Скачан: 81 раз • Желающих скачать: 0 • Поблагодарили: 9 раз
 Раздают: 0  |  0 KB/s  ]   Качают: 0  |  0 KB/s  ] 
 Полного источника не было 3 года 2 месяца 
Сообщения
 Добавлено: 2012-04-12 23:22
Руководитель релиз-группы
Аватара пользователя
Стаж: 7 лет 5 месяцев
Возраст: 31
Сообщений: 3406
Спасибок: 46729
Лайков: 5
Изображение

Сопровождающий
The Chaperone


Год выпуска: 2011
Страна: США
Слоган: «Her dad did time... now he wants quality time»
Жанр: боевик, комедия, семейный
Продолжительность: 01:39:24
Перевод: Профессиональный (многоголосый, закадровый)
Режиссер: Стивен Херек
Сценарий: C.Дж. Рот
Продюсер: Майкл Павоне, Дэвид Кэллоуэй, Нэнси Хирами
Оператор: Кеннет Д. Зандер
Композитор: Джим Джонстон
В ролях: Майкл Пол Левески, Кевин Корригэн, Хосе Суньига, Кевин О. Ранкин, Энрико Колантони, Израэль Бруссар, Джейк Остин Уолкер, Эшли Тейлор, Каллен Чаффин, Даррен О’Харе
Бюджет: $3 000 000
Описание: Рэй Брэдстоун - самый искусный водитель в своей сфере... в сфере ограблений банков. Освободившись из тюрьмы, он намерен больше не переступать закон, стать самым лучшим отцом для своей дочери Салли и наладить отношения с бывшей женой Линн. Когда все его попытки воссоединиться с семьей оказываются напрасными, а найти честный заработок не получается, старые знакомые предлагает ему «последнее дело».
Изображение
MPAA: Изображение
Релиз: Изображение Раздача группы: Изображение
Качество: DVD5 (сжатый)
Формат: DVD Video
Видео: MPEG2; PAL 16:9 (720x576)
Аудио #1: Dolby AC3, 6 ch, 384 Kbps Russian
Аудио #2: Dolby AC3, 6 ch, 384 Kbps English
Субтитры: русские
Дополнительная информация :
Исходник : DVD9 (5.79 Гб) [лицензия, PAL 16:9]
Убрано : реклама, заставки, предупреждения, Russian (Dolby AC3, 2 ch)
Сжатие фильма : 25.6 % сжатия (без учета ручного перераспределения битрейта, за счет большего сжатия конечных титров)
использовались программы
    DVDRemakePro
    Photoshop
    MuxMan
    Rebuilder и CCE (Cinema Craft Encoder), 5 проходов
    Работоспособность проверена на софтовом плеере Windows Media и бытовом LG
Свернуть
DVDInfo
    Title: Soprovozhdaushiy_2011_DVD5.[R.G.Daredevil]
    Size: 4.37 Gb ( 4 581 656,00 KBytes ) - DVD-5
    Enabled regions: 1, 2, 3, 4, 5, 6, 7, 8

    VTS_01 :
    Play Length: 00:00:00+01:39:24+{00:00:00}
    Video: PAL 16:9 (720x576) VBR, Auto Letterboxed
    Audio:
    Russian (Dolby AC3, 6 ch)
    English (Dolby AC3, 6 ch)
    Russian (Dolby AC3, 2 ch)
    Subtitles:
    Russian

    VTS_02 :
    Play Length: 00:00:00+00:00:00+00:00:00+{00:00:00}
    Video: PAL 16:9 (720x576) VBR, Auto Letterboxed
    Audio:
    Russian (Dolby AC3, 6 ch)
Свернуть
mediainfo
    Формат : MPEG-PS
    Размер файла : 1024 Мбайт
    Продолжительность : 22 м.
    Режим общего битрейта : Переменный
    Общий поток : 6290 Кбит/сек
    Библиотека кодирования : encoded by TMPGEnc (ver. 2.524.63.181)

    Видео
    Идентификатор : 224 (0xE0)
    Формат : MPEG Video
    Версия формата : Version 2
    Профиль формата : Main@Main
    Параметр BVOP формата : Да
    Параметр матрицы формата : Выборочная
    Продолжительность : 22 м.
    Вид битрейта : Переменный
    Битрейт : 5397 Кбит/сек
    Ширина : 720 пикселей
    Высота : 576 пикселей
    Соотношение сторон : 16:9
    Частота кадров : 25,000 кадров/сек
    Стандарт вещания : PAL
    Цветовое пространство : YUV
    Субдискретизация насыщенности : 4:2:0
    Битовая глубина : 8 бит
    Метод сжатия : С потерями
    Бит/(Пиксели*Кадры) : 0.521
    Размер потока : 879 Мбайт (86%)
    Библиотека кодирования : TMPGEnc 2.524.63.181

    Аудио #1
    Идентификатор : 189 (0xBD)-128 (0x80)
    Формат : AC-3
    Формат/Информация : Audio Coding 3
    Расширение режима : CM (complete main)
    Режим смешивания : DVD-Video
    Продолжительность : 22 м.
    Вид битрейта : Постоянный
    Битрейт : 384 Кбит/сек
    Каналы : 6 каналов
    Расположение каналов : Front: L C R, Side: L R, LFE
    Частота : 48,0 КГц
    Битовая глубина : 16 бит
    Метод сжатия : С потерями
    Задержка видео : 6 мс.
    Размер потока : 62,5 Мбайт (6%)

    Аудио #2
    Идентификатор : 189 (0xBD)-129 (0x81)
    Формат : AC-3
    Формат/Информация : Audio Coding 3
    Расширение режима : CM (complete main)
    Режим смешивания : DVD-Video
    Продолжительность : 22 м.
    Вид битрейта : Постоянный
    Битрейт : 384 Кбит/сек
    Каналы : 6 каналов
    Расположение каналов : Front: L C R, Side: L R, LFE
    Частота : 48,0 КГц
    Битовая глубина : 16 бит
    Метод сжатия : С потерями
    Задержка видео : 6 мс.
    Размер потока : 62,5 Мбайт (6%)

    Текст
    Идентификатор : 189 (0xBD)-32 (0x20)
    Формат : RLE
    Формат/Информация : Run-length encoding
    Режим смешивания : DVD-Video

    Меню
Свернуть
Скриншоты

меню
Изображение
Изображение
Изображение
Свернуть
Изображение
Изображение
Изображение
Изображение
Свернуть
Не в сети
Профиль  
 Добавлено: 2012-04-13 17:48 (спустя 18 часов)
Аватара пользователя
Стаж: 8 лет 3 месяца
Сообщений: 50
Спасибок: 7
как фильм?
Не в сети
Профиль  
Начать новую темуОтветить на тему  [ Сообщений: 2 ] 
Вы не можете начинать темы
Вы не можете отвечать на сообщения
Вы не можете редактировать свои сообщения
Вы не можете удалять свои сообщения