Правила форума

  • В этом разделе создание новых тем Запрещено.
  • Для создания новых тем пользуйтесь Корневым разделом DVD и HD фильмы.
Начать новую темуОтветить на тему  [ 1 сообщение ] 
Торрент файл
Размер: 9.54 GB • Зарегистрирован: 1 год 2 месяца • Статус: Проверено
Скачан: 7 раз • Желающих скачать: 0 • Поблагодарили: 1 раз
 Раздают: 0  |  0 KB/s  ]   Качают: 0  |  0 KB/s  ] 
 Полного источника не было 2 месяца 19 дней 
Сообщения
 Добавлено: 2015-09-29 19:21
Стаж: 1 год 4 месяца
Сообщений: 3
Спасибок: 1
Старикам тут не место / No Country for Old Men

Изображение


Год выпуска: 2007
Страна: США (Miramax Films, Paramount Vantage, Mike Zoss Productions)
Слоган: «Из воды сухим не выйти»
Жанр: триллер, драма, криминал
Продолжительность: 02:02:10
Перевод: Дубляж, Пифагор + Английский
Субтитры: Русские, Английские

Режиссёр: Итан Коэн, Джоэл Коэн
Сценарист: Джоэл Коэн, Итан Коэн, Кормак МакКарти
Продюсер: Итан Коэн, Джоэл Коэн, Скотт Рудин
Оператор: Роджер Дикинс
Композитор: Картер Бёруэлл
В ролях: Томми Ли Джонс, Джош Бролин, Хавьер Бардем, Келли Макдоналд, Вуди Харрельсон, Бет Грант, Гаррет Диллахант, Тесс Харпер, Бэрри Корбин, Стивен Рут
Описание: Обычный работяга обнаруживает в пустыне гору трупов, грузовик, набитый героином, и соблазнительную сумму в два миллиона долларов наличными. Он решает взять деньги себе, и результатом становится волна насилия, которую не может остановить вся полиция Западного Техаса.

Рейтинг MPAA: Рейтинг R (Подростки до 17 лет допускаются на фильм только в сопровождении одного из родителей)
Мировая премьера: 19 мая 2007
Премьера в России: 31 января 2008
Бюджет: $25 000 000
Кассовые сборы: $171 627 166

Изображение 7.772

Кодек: x264
Качество: BDRip 1080p (источник: BLUEBIRD / Blu-ray Remux / 1080p)
Видео: 1920х816 (2.35:1), 8043 Kbps, 23.976 fps, 0.214 bit/pixel
Аудио #1: 48.0 kHz, AC3 Dolby Digital, 3/2 (L,C,R,l,r) + LFE ch, 640 kbps [Дубляж, Пифагор]
Аудио #2: 48.0 kHz, AC3 Dolby Digital, 3/2 (L,C,R,l,r) + LFE ch, 640 kbps [Английский]
Субтитры: Русские, английские

Доп.информация:
Отдельно в папке:
Аудио #3: 48.0 kHz, AC3 Dolby Digital, 3/2 (L,C,R,l,r) + LFE ch, 640 kbps [Двухголосый, Лостфильм]
Аудио #4: 48.0 kHz, AC3 Dolby Digital, 3/2 (L,C,R,l,r) + LFE ch, 384 kbps [Многоголосый, Киномания]
Аудио #5: 48.0 kHz, AC3 Dolby Digital, 3/2 (L,C,R,l,r) + LFE ch, 384 kbps [Авторский, Ю. Сербин]
Аудио #6: 48.0 kHz, AC3 Dolby Digital, 3/2 (L,C,R,l,r) + LFE ch, 448 kbps [Авторский, А. Гаврилов]

x264
x264 [info]: frame I:1449 Avg QP:16.13 size:220728
x264 [info]: frame P:49943 Avg QP:19.40 size: 72607
x264 [info]: frame B:124361 Avg QP:21.37 size: 27511
Свернуть
MediaInfo
General
Unique ID : 225310863406850333241391868433498722553 (0xA9814B3A9CB201ADAA6C1D3906A550F9)
Complete name : E:No.Country.for.Old.Men.2007.x264.1080pNo.Country.for.Old.Men.2007.x264.1080p.mkv
Format : Matroska
Format version : Version 4 / Version 2
File size : 7.96 GiB
Duration : 2h 2mn
Overall bit rate : 9 322 Kbps
Encoded date : UTC 2013-06-24 16:14:10
Writing application : mkvmerge v6.2.0 ('Promised Land') built on Apr 28 2013 12:22:01
Writing library : libebml v1.3.0 + libmatroska v1.4.0

Video
ID : 1
Format : AVC
Format/Info : Advanced Video Codec
Format profile : High@L4.1
Format settings, CABAC : Yes
Format settings, ReFrames : 5 frames
Codec ID : V_MPEG4/ISO/AVC
Duration : 2h 2mn
Bit rate : 8 043 Kbps
Width : 1 920 pixels
Height : 816 pixels
Display aspect ratio : 2.35:1
Frame rate mode : Constant
Frame rate : 23.976 fps
Color space : YUV
Chroma subsampling : 4:2:0
Bit depth : 8 bits
Scan type : Progressive
Bits/(Pixel*Frame) : 0.214
Stream size : 6.71 GiB (84%)
Writing library : x264 core 133 r2334 a3ac64b
Encoding settings : cabac=1 / ref=5 / deblock=1:-2:-2 / analyse=0x3:0x133 / me=tesa / subme=11 / psy=1 / psy_rd=1.00:0.08 / mixed_ref=1 / me_range=32 / chroma_me=1 / trellis=2 / 8x8dct=1 / cqm=0 / deadzone=21,11 / fast_pskip=0 / chroma_qp_offset=-3 / threads=12 / lookahead_threads=1 / sliced_threads=0 / nr=0 / decimate=0 / interlaced=0 / bluray_compat=0 / constrained_intra=0 / bframes=3 / b_pyramid=2 / b_adapt=2 / b_bias=0 / direct=3 / weightb=1 / open_gop=0 / weightp=2 / keyint=240 / keyint_min=23 / scenecut=40 / intra_refresh=0 / rc_lookahead=60 / rc=2pass / mbtree=1 / bitrate=8043 / ratetol=1.0 / qcomp=0.60 / qpmin=0 / qpmax=69 / qpstep=4 / cplxblur=20.0 / qblur=0.5 / ip_ratio=1.40 / aq=1:1.00
Language : English
Default : Yes
Forced : No

Audio #1
ID : 2
Format : AC-3
Format/Info : Audio Coding 3
Mode extension : CM (complete main)
Format settings, Endianness : Big
Codec ID : A_AC3
Duration : 2h 2mn
Bit rate mode : Constant
Bit rate : 640 Kbps
Channel(s) : 6 channels
Channel positions : Front: L C R, Side: L R, LFE
Sampling rate : 48.0 KHz
Bit depth : 16 bits
Compression mode : Lossy
Stream size : 559 MiB (7%)
Title : AC3 5.1ch 640 kbps - Дубляж, Пифагор
Language : Russian
Default : Yes
Forced : No

Audio #2
ID : 3
Format : AC-3
Format/Info : Audio Coding 3
Mode extension : CM (complete main)
Format settings, Endianness : Big
Codec ID : A_AC3
Duration : 2h 2mn
Bit rate mode : Constant
Bit rate : 640 Kbps
Channel(s) : 6 channels
Channel positions : Front: L C R, Side: L R, LFE
Sampling rate : 48.0 KHz
Bit depth : 16 bits
Compression mode : Lossy
Stream size : 559 MiB (7%)
Title : AC3 5.1ch 640 kbps - Английский
Language : English
Default : No
Forced : No

Text #1
ID : 4
Format : UTF-8
Codec ID : S_TEXT/UTF8
Codec ID/Info : UTF-8 Plain Text
Title : Русские
Language : Russian
Default : No
Forced : No

Text #2
ID : 5
Format : UTF-8
Codec ID : S_TEXT/UTF8
Codec ID/Info : UTF-8 Plain Text
Title : Английские
Language : English
Default : No
Forced : No
Свернуть

Скриншоты
Изображение
Изображение
Изображение
Изображение
Свернуть

Знаете ли Вы, что...
- Фильм снят по мотивам романа Кормака МакКарти «Старикам здесь не место» (No Country For Old Men, 2005).
- Съемочный период: 23 мая — 16 августа 2006.
- Братья Коэны отказали Джошу Бролину в пробах на фильм. Поэтому Джош попросил Роберта Родригеза помочь ему записать пробы на роль. Пробы Джоша снимались на камеру стоимостью $950,000, за камерой стоял Роберт Родригез, съёмками руководил Квентин Тарантино.
- Название фильма взято из первой строки поэмы Уильяма Батлера Йитса «Плавание в Византий».
- Причёска убийцы-маньяка Антона Чигура взята с фотографии посетителя борделя, сделанной в 1979 году. После того как эта причёска была воплощена в жизнь, Хавьер Бардем воскликнул, глядя на себя в зеркало: «О нет, теперь я на два месяца остался без секса!».
- Продюсеры вели переговоры с Хитом Леджером на роль Ллуэлина Мосса, однако последний в конечном итоге отказался от участия в фильме.
- В отличие от многих снятых по книгам картин большинство событий фильма развивается в той же последовательности, что и в книге.
- Оружие, которое использует Антон Чигур, — пистолет с выдвигающимся ударным стержнем, который часто применяется на скотобойнях.
- В фильме отсутствует оригинальный саундтрек. Только на финальных титрах зритель услышит музыку, написанную для фильма.
- Джоэл и Итан Коэны не только выступили продюсерами, сценаристами и режиссерами фильма, но и сами его смонтировали. Однако в титрах указан их общий псевдоним Родерик Джэйнс.
- Коэны любят давать ссылки на одного из любимых своих режиссеров — Стэнли Кубрика. Так, в фильме появляется комната в мотеле с номером 114; этот номер неоднократно появлялся и в фильмах Кубрика.
- Братья Коэны пытались сохранить не только дух, но и букву романа — большинство диалогов и монологов в фильме, в частности, финальная речь шерифа Белла, повторяют слово в слово книжные диалоги и монологи.
- Город Одесса, в который по сюжету бежит Карла Джейн Мосс, находится вовсе не в Украине. На самом деле, здесь имеется в виду одноимённый городок с населением 78 тыс жителей на юге США (штат Техас).
- Фильм снимался одновременно с «Нефтью» Пола Томаса Андерсона, и съёмочные площадки находились недалеко друг от друга, на расстоянии двух холмов. Однажды Коэнам пришлось прервать съёмки, потому что со съёмочной площадки «Нефти» валил густой дым, попадающий в кадр.
- Действие происходит в Техасе, но по финансовым соображениям фильм снимался в Лас-Вегасе. Тем не менее, по настоянию Томми Ли Джонса братья Коэны сняли несколько сцен на западе Техаса.
- Пол Уокер активно претендовал на роль Мосса. По его словам, он всегда хотел сняться у братьев Коэнов. В «Старикам тут не место» Пол даже прошел кастинг. Но братья предпочли Хита Леджера, после отказа которого роль перешла Джошу Бролину.
- Аптека, возле которой Чигур взрывает припаркованный на улице автомобиль, называется «Mike Zoss Pharmacy». В аптеке с таким же названием в Миннеаполисе Джоэл Коэн и Итан Коэн в детстве проводили много времени. Их собственная кинокомпания также называется «Mike Zoss Productions».
Свернуть
Не в сети
Профиль  
Начать новую темуОтветить на тему  [ 1 сообщение ] 
Вы не можете начинать темы
Вы не можете отвечать на сообщения
Вы не можете редактировать свои сообщения
Вы не можете удалять свои сообщения