Правила форума

  • В этом разделе создание новых тем Запрещено.
  • Для создания новых тем пользуйтесь Корневым разделом DVD и HD фильмы.
Начать новую темуОтветить на тему  [ Сообщений: 3 ] 
Торрент файл
Размер: 4.37 GB • Зарегистрирован: 4 года 7 месяцев • Статус: Проверено
Скачан: 49 раз • Желающих скачать: 0 • Поблагодарили: 6 раз
 Раздают: 0  |  0 KB/s  ]   Качают: 0  |  0 KB/s  ] 
 Полного источника не было 2 года 1 месяц 
Сообщения
 Добавлено: 2012-04-30 01:19
DVD Release Group
Аватара пользователя
Стаж: 7 лет 1 месяц
Сообщений: 3545
Спасибок: 246961
Лайков: 1018
Стыд

Shame


Изображение


Год выпуска: 2011
Страна: Великобритания
Жанр: Драма
Продолжительность: 01:36:40
Перевод: Профессиональный (полное дублирование)
Субтитры: Русские.
Режиссер: Стив МакКуин
В ролях: Кэри Маллиган, Майкл Фассбендер, Люсиль Уолтерс, Мари-Анхе Рамирес, Джеймс Бэдж Дэйл, Николь Бихэйр, Алекс Манетт, Ханна Уэр, Элизабет Масуччи, Рэйчел Фаррар, Лорен Омер
Описание: Главный герой — житель Нью-Йорка, страдающий от эротомании и неспособный контролировать свою сексуальную жизнь. Он пытается обрести поддержку своих родных, а также ищет помощи у сотрудников.
Кинопоиск: 6.91 (5033)
IMDb: 7.6 (25027)
Дополнительно:
Исходник: DVD9 (6.93 Гб) [лицензия, PAL 16:9].
Убрано: Видеоинтервью с режиссером и актерами, биография создателей и исполнителей, трейлеры, фотогалерея, заставки и предупреждение.
Сжатие фильма 14 % сжатия (без учета ручного перераспределения битрейта, за счет большего сжатия конечных титров).
Работоспособность проверена на софтовом плеере Windows Media и бытовом LG.
Качество: DVD5 (сжатый)
Формат: DVD Video
Видео кодек: MPEG2
Аудио кодек: AC3
Видео: 720x576 25fps 5500Kbps
Аудио:
Аудио Rus: 48kHz 6ch 448Kbps
Аудио Eng: 48kHz 6ch 448Kbps
"MediaInfo"

Формат : MPEG-PS
Размер файла : 1024 Мбайт
Продолжительность : 21 м.
Режим общего битрейта : Переменный
Общий поток : 6526 Кбит/сек

Видео
Идентификатор : 224 (0xE0)
Формат : MPEG Video
Версия формата : Version 2
Профиль формата : Main@Main
Параметр BVOP формата : Да
Параметр матрицы формата : Выборочная
Продолжительность : 21 м.
Вид битрейта : Переменный
Битрейт : 5500 Кбит/сек
Максимальный битрейт : 7009 Кбит/сек
Ширина : 720 пикселей
Высота : 576 пикселей
Соотношение сторон : 16:9
Частота кадров : 25,000 кадров/сек
Стандарт вещания : PAL
Цветовое пространство : YUV
Субдискретизация насыщенности : 4:2:0
Битовая глубина : 8 бит
Тип развёртки : Прогрессивная
Порядок развёртки : Нижнее поле первое
Метод сжатия : С потерями
Бит/(Пиксели*Кадры) : 0.530
Размер потока : 863 Мбайт (84%)

Аудио #1
Идентификатор : 189 (0xBD)-128 (0x80)
Формат : AC-3
Формат/Информация : Audio Coding 3
Расширение режима : CM (complete main)
Режим смешивания : DVD-Video
Продолжительность : 21 м.
Вид битрейта : Постоянный
Битрейт : 448 Кбит/сек
Каналы : 6 каналов
Расположение каналов : Front: L C R, Side: L R, LFE
Частота : 48,0 КГц
Битовая глубина : 16 бит
Метод сжатия : С потерями
Размер потока : 70,3 Мбайт (7%)

Аудио #2
Идентификатор : 189 (0xBD)-129 (0x81)
Формат : AC-3
Формат/Информация : Audio Coding 3
Расширение режима : CM (complete main)
Режим смешивания : DVD-Video
Продолжительность : 21 м.
Вид битрейта : Постоянный
Битрейт : 448 Кбит/сек
Каналы : 2 канала
Расположение каналов : Front: L R
Частота : 48,0 КГц
Битовая глубина : 16 бит
Метод сжатия : С потерями
Размер потока : 70,3 Мбайт (7%)

Текст #1
Идентификатор : 189 (0xBD)-32 (0x20)
Формат : RLE
Формат/Информация : Run-length encoding
Режим смешивания : DVD-Video

Текст #2
Идентификатор : 189 (0xBD)-33 (0x21)
Формат : RLE
Формат/Информация : Run-length encoding
Режим смешивания : DVD-Video

Меню
Свернуть

"Скриншоты"
Изображение
Изображение
Изображение
Изображение
Изображение
Изображение
Изображение
Изображение
Изображение
Свернуть

Раздача группы:
Изображение
В сети
Профиль  
 Добавлено: 2013-04-11 21:59 (спустя 11 месяцев)
Стаж: 7 лет 9 месяцев
Сообщений: 120
Лайков: 7
В новом тысячелетии, под завязку полном свобод и слегка страдающем от недобора устоев, психологический очерк стал еще и физиологичным — рассказать о некой социальной страте проще всего, живописав, как, с кем и насколько регулярно ее представители спят. Поскольку главный человек сегодня — клерк, Стив МакКуин пишет точнейший портрет поколения, демонстрируя нам героя, личная жизнь которого крутится вокруг стопки порножурналов, мобильного с телефонами шлюх, ноутбука, с помощью которого можно посмотреть стриптиз онлайн, и унитаза, над которым Брэндон то мастурбирует, то сотрясается от рвотных спазмов. В какой-то момент все вышеописанное, исключая разве что унитаз, окажется на помойке: голубая мечта члена раскрепощенного общества — выкинуть все, что его так раскрепощает, и загнать себя хоть в какие-то рамки, попытавшись обнаружить на этом периметре стабильность и счастье. Не выходит — сопротивляться соблазну вседозволенности сложней всего. На эмоционально затратные близкие отношения у современного инфантила, вульгарно выражаясь, попросту не встает — и он снова, будто кадавр из повести Стругацких, гребет под себя все, до чего может дотянуться. Страдая от самого страшного вида одиночества — в море возможностей, в толпе — и бесконечно стыдясь неспособности противостоять собственному потребительскому инстинкту.
Не в сети
Профиль  
 Добавлено: 2013-04-17 07:40 (спустя 5 дней)
Аватара пользователя
Стаж: 7 лет 4 месяца
Возраст: 34
Сообщений: 18
Чо, чо? :-D
Не в сети
Профиль  
Начать новую темуОтветить на тему  [ Сообщений: 3 ] 
Вы не можете начинать темы
Вы не можете отвечать на сообщения
Вы не можете редактировать свои сообщения
Вы не можете удалять свои сообщения