Правила форума

  • В этом разделе создание новых тем Запрещено.
  • Для создания новых тем пользуйтесь Корневым разделом DVD и HD фильмы.
Начать новую темуОтветить на тему  [ Сообщений: 4 ] 
Торрент файл
Размер: 7.1 GB • Зарегистрирован: 3 года 10 месяцев • Статус: Проверено
Скачан: 113 раз • Желающих скачать: 0 • Поблагодарили: 40 раз
 Раздают: 0  |  0 KB/s  ]   Качают: 0  |  0 KB/s  ] 
 Полного источника не было 1 месяц 19 дней 
Сообщения
 Добавлено: 2013-01-30 22:28
DVD Release Group
Аватара пользователя
Стаж: 7 лет 1 месяц
Сообщений: 3569
Спасибок: 247804
Лайков: 1020
Судья Дредд

Dredd

«Я – закон»


Изображение


Год выпуска: 2012
Страна: ЮАР, Великобритания
Жанр: Фантастика, боевик, триллер, криминал
Продолжительность: 01:31:38
Перевод: Профессиональный (полное дублирование)
Cубтитры: Украинские
Режиссер: Пит Трэвис
В ролях: Карл Урбан, Оливия Тирлби, Лина Хиди, Вуд Харрис, Рэйчел Вуд, Андил Мнгади, Портес Ксандо Стинкамп, Джейсон Коуп, Эмма Бреши, Рэки Айола
Описание: Будущее не столь красочно и великолепно, каким его представляют современные люди. Через несколько столетий человечество окажется на грани самоуничтожения, захлёбываясь в кровавых преступлениях, смертельных грехах и беспорядочных убийствах. Старую систему правосудия будет невозможно использовать — анархия, всеобщие беспорядки вынуждают ещё сохранившуюся власть, тем не менее, потерявшую всякий авторитет и легитимность, пойти на отчаянные крайние меры и ввести институт Судей — универсальных полицейских, правоприменителей, а по совместительству — и прокуроров, которые упростили бы весь процесс задержания, следствия и судебных тяжб, совмещая в одном лице все должности блюстителей и защитников правопорядка.
Негодяи, подонки, вконец обнаглевшие и распоясавшиеся преступники и бандитские группировки всё равно не желают сдавать свои упрочившие позиции, опасаясь лишь одного — встречи с легендарным Судьёй Дреддом, пересажавшим или расстрелявшим не одну сотню насильников, террористов и жадных до человеческих страданий маньяков. В то время, как беспорядки и бесчинства бушуют на улицах города, Дредд спешит вернуть порядок, Закон и тишину, которым, кажется, уже никогда не обрести свою былую полноту, мощь и силу…
Изображение
Дополнительно: Анонсы
Sample:
http://multi-up.com/824856
Качество: DVD9
Формат: DVD Video
Видео кодек: MPEG2
Аудио кодек: AC3, DTS
Видео: 720х576 25fps 7741Kbps
Аудио:
Аудио Rus: AC3 48kHz 6ch 448Kbps
Аудио Eng: AC3 48kHz 2ch 224Kbps
Аудио Rus: DTS 48kHz 6ch 755Kbps
"DVDInfo"
Title: Sudja.Dredd.2012.DVD9
Size: 7.10 Gb ( 7 447 576,00 KBytes ) - DVD-9
Enabled regions: 1, 2, 3, 4, 5, 6, 7, 8

VTS_01 :
Play Length: 01:31:38
Video: PAL 16:9 (720x576) VBR, Auto Letterboxed
Audio:
Russian (Dolby AC3, 6 ch)
English (Dolby AC3, 2 ch)
Russian (DTS, 6 ch)
Subtitles:
Ukrainian

VTS_02 :
Play Length: 00:02:09+00:01:59+00:02:19+00:02:18+00:02:23+00:01:50+00:02:00+00:01:30+00:01:18
Video: PAL 16:9 (720x576) VBR, Auto Letterboxed
Audio:
Russian (LinearPCM, 2 ch)

VTS_03 :
Play Length: 00:00:15+00:00:15
Video: PAL 16:9 (720x576) VBR, Auto Letterboxed
Audio:
Russian (Dolby AC3, 6 ch)

* Menus Information *

VIDEO_TS Menu
Video:
PAL 16:9 (720x576) VBR
Auto Letterboxed
Audio:
Not specified (LinearPCM, 2 ch)
Russian Language Unit :
Title Menu

VTS_01 Menu
Video:
PAL 16:9 (720x576) VBR
Auto Letterboxed
Audio:
Not specified (LinearPCM, 2 ch)
Russian Language Unit :
Root Menu
Свернуть

"MediaInfo"
Формат : MPEG-PS
Размер файла : 1024 Мбайт
Продолжительность : 15 м.
Режим общего битрейта : Переменный
Общий поток : 9354 Кбит/сек

Видео
Идентификатор : 224 (0xE0)
Формат : MPEG Video
Версия формата : Version 2
Профиль формата : Main@Main
Параметр BVOP формата : Да
Параметр матрицы формата : Выборочная
Параметр GOP формата : M=2, N=15
Продолжительность : 15 м.
Вид битрейта : Переменный
Битрейт : 7741 Кбит/сек
Максимальный битрейт : 9800 Кбит/сек
Ширина : 720 пикселей
Высота : 576 пикселей
Соотношение сторон : 16:9
Частота кадров : 25,000 кадров/сек
Стандарт вещания : PAL
Цветовое пространство : YUV
Субдискретизация насыщенности : 4:2:0
Битовая глубина : 8 бит
Тип развёртки : Чересстрочная
Порядок развёртки : Верхнее поле первое
Метод сжатия : С потерями
Бит/(Пиксели*Кадры) : 0.747
Размер потока : 847 Мбайт (83%)

Аудио #1
Идентификатор : 189 (0xBD)-128 (0x80)
Формат : AC-3
Формат/Информация : Audio Coding 3
Расширение режима : CM (complete main)
Режим смешивания : DVD-Video
Продолжительность : 15 м.
Вид битрейта : Постоянный
Битрейт : 448 Кбит/сек
Каналы : 6 каналов
Расположение каналов : Front: L C R, Side: L R, LFE
Частота : 48,0 КГц
Битовая глубина : 16 бит
Метод сжатия : С потерями
Размер потока : 49,0 Мбайт (5%)

Аудио #2
Идентификатор : 189 (0xBD)-129 (0x81)
Формат : AC-3
Формат/Информация : Audio Coding 3
Расширение режима : CM (complete main)
Режим смешивания : DVD-Video
Продолжительность : 15 м.
Вид битрейта : Постоянный
Битрейт : 224 Кбит/сек
Каналы : 2 канала
Расположение каналов : Front: L R
Частота : 48,0 КГц
Битовая глубина : 16 бит
Метод сжатия : С потерями
Размер потока : 24,5 Мбайт (2%)

Аудио #3
Идентификатор : 189 (0xBD)-138 (0x8A)
Формат : DTS
Формат/Информация : Digital Theater Systems
Режим смешивания : DVD-Video
Продолжительность : 15 м.
Вид битрейта : Постоянный
Битрейт : 755 Кбит/сек
Каналы : 6 каналов
Расположение каналов : Front: L C R, Side: L R, LFE
Частота : 48,0 КГц
Битовая глубина : 16 бит
Метод сжатия : С потерями
Размер потока : 82,6 Мбайт (8%)

Меню
Свернуть

"Скриншоты"
Изображение
Изображение
Изображение
Изображение
Изображение
Изображение
Изображение
Изображение
Изображение
Изображение
Свернуть

Раздача группы:
Изображение
Не в сети
Профиль  
 Добавлено: 2013-01-30 23:08 (спустя 40 минут)
DVD Release Group
Аватара пользователя
Стаж: 7 лет 10 месяцев
Сообщений: 364
Спасибок: 3090
Лайков: 10
Жёско, однако, с оригинальной дорожкой обошлись -
DTS-HD Master Audio 4989 kbps 7.1 / 48 kHz / 24-bit - сплющилась в ничтожные 2ch 224Kbps (качество достойное комментариев режиссера). :-D
Спасибо, заценим. :ti_pa:
Не в сети
Профиль  
 Добавлено: 2013-01-31 08:18 (спустя 9 часов)
Модератор релиз-группы
Аватара пользователя
Стаж: 6 лет 5 месяцев
Возраст: 25
Сообщений: 622
Спасибок: 10258
Лайков: 7
rastor
От души! :-ok-:
_________________
Изображение
Не в сети
Профиль  
 Добавлено: 2013-03-31 13:30 (спустя 2 месяца)
Стаж: 8 лет 9 месяцев
Сообщений: 38
фильм не понравился
Не в сети
Профиль  
Начать новую темуОтветить на тему  [ Сообщений: 4 ] 
Вы не можете начинать темы
Вы не можете отвечать на сообщения
Вы не можете редактировать свои сообщения
Вы не можете удалять свои сообщения