Правила форума

  • В этом разделе создание новых тем Запрещено.
  • Для создания новых тем пользуйтесь Корневым разделом DVD и HD фильмы.
Начать новую темуОтветить на тему  [ Сообщений: 4 ] 
Торрент файл
Размер: 5.11 GB • Зарегистрирован: 5 лет 5 месяцев • Статус: Проверено
Скачан: 534 раза • Желающих скачать: 0 • Поблагодарили: 81 раз
 Раздают: 0  |  0 KB/s  ]   Качают: 0  |  0 KB/s  ] 
 Полного источника не было 1 год 11 месяцев 
Сообщения
 Добавлено: 2011-06-21 17:12
Аватара пользователя
Стаж: 5 лет 6 месяцев
Возраст: 30
Сообщений: 353
Спасибок: 7455
Сумасшедшая езда / Drive Angry

Изображение


Год выпуска: 2011
Страна: США (Michael De Luca Productions, Millennium Films, Nu-Image Films, Paradise F.X. Corp., Saturn Films, Summit Entertainment)
Слоган: «К черту из ада»
Жанр: фэнтези, боевик, триллер, криминал
Продолжительность: 01:50:15
Перевод: Оригинальная звуковая дорожка + Профессиональный (дубляж)
Дублеры: Алексей Рязанцев, Вероника Саркисова, Валерий Сторожик, Всеволод Кузнецов, Тимофей Спивак + Профессиональный (дубляж)
Субтитры: Русские, Английские

Режиссёр: Патрик Люссье / Patrick Lussier
Сценарист: Тодд Фармер, Патрик Люссье
Продюсер: Рене Бессон, Майкл Де Лука, Эд Кэйтелл III
Оператор: Брайан Пирсон
Композитор: Майкл Вандмахер

В ролях: Николас Кейдж, Эмбер Хёрд, Уильям Фихтнер, Билли Бёрк, Дэвид Морс, Тодд Фармер, Криста Кэмпбелл, Шарлотта Росс, Том Аткинс, Джек МакГи

Описание: В центре событий герой, идущий по следу негодяев, убивших его дочь. Главный герой «слетает с катушек», прыгает за руль своего автомобиля и начинает мстить, оставляя по обочинам дороги трупы похитителей.

Рейтинг MPAA: Рейтинг R (Подростки до 17 лет допускаются на фильм только в сопровождении одного из родителей)
Мировая премьера: 24 февраля 2011
Премьера в России: 3 марта 2011, «Каро-Премьер» 3D
Бюджет: $50 000 000
Кассовые сборы: + $18 210 368 = $28 931 401

Изображение Изображение Изображение


Качество: DVD9 R5
Формат: DVD Video
Видео кодек: MPEG2
Аудио кодек: AC3 (Dolby Digital)
Видео: PAL 16:9 (720x576(0.525)) MPEG Video,25,000 кадр/сек, 5447 Кбит/сек
Аудио #1: English (Dolby AC3, 6 ch) 384 Кбит/сек, 48,0 КГц [Оригинальная звуковая дорожка]
Аудио #2: Russian (Dolby AC3, 6 ch) 384 Кбит/сек, 48,0 КГц [Профессиональный (дубляж)]
Аудио #3: Ukrainian (Dolby AC3, 6 ch) 384 Кбит/сек, 48,0 КГц [Профессиональный (дубляж)]
Субтитры: Русские, Английские

"DVDInfo"
Title: Мой диск
Size: 5.11 Gb ( 5 353 372 KBytes ) - DVD-9
Enabled regions: 1, 2, 3, 4, 5, 6, 7, 8

VTS_01 :
Play Length: 01:40:07+00:09:00+00:01:08
Video: PAL 16:9 (720x576) VBR, Auto Letterboxed
Audio:
English (Dolby AC3, 6 ch)
Russian (Dolby AC3, 6 ch)
Ukrainian (Dolby AC3, 6 ch)
English (Dolby AC3, 2 ch)
Subtitles:
English
Russian

VTS_02 :
Play Length: 00:00:10+00:00:12
Video: PAL 16:9 (720x576) VBR, Auto Letterboxed
Audio:
Not specified (Dolby AC3, 6 ch)
Subtitles:
Not specified

Свернуть

"MediaInfo"
Общее
Полное имя : F:\Новинки 2011\Sumashedshaya.ezda.2011.DVD9\VIDEO_TS\VTS_01_1.VOB
Формат : MPEG-PS
Размер файла : 1024 Мбайт
Продолжительность : 21 м.
Общий поток : 6733 Кбит/сек

Видео
Идентификатор : 224 (0xE0)
Формат : MPEG Video
Версия формата : Version 2
Профиль формата : Main@Main
Параметр BVOP формата : Да
Параметр матрицы формата : Выборочная
Продолжительность : 21 м.
Вид битрейта : Переменный
Битрейт : 5447 Кбит/сек
Номинальный битрейт : 9800 Кбит/сек
Ширина : 720 пикс.
Высота : 576 пикс.
Соотношение сторон : 16:9
Частота кадров : 25,000 кадр/сек
Стандарт вещания : PAL
Цветовое пространство : YUV
Подвыборка цветности : 4:2:0
Битовая глубина : 8 бит
Метод сжатия : С потерями
Бит/(Пиксели*Кадры) : 0.525
Размер потока : 828 Мбайт (81%)

Аудио #1
Идентификатор : 189 (0xBD)-128 (0x80)
Формат : AC-3
Формат/Информация : Audio Coding 3
Расширение режима : CM (complete main)
Режим смешивания : DVD-Video
Продолжительность : 21 м.
Вид битрейта : Постоянный
Битрейт : 384 Кбит/сек
Каналы : 6 каналов
Расположение каналов : Front: L C R, Side: L R, LFE
Частота : 48,0 КГц
Битовая глубина : 16 бит
Метод сжатия : С потерями
Размер потока : 58,4 Мбайт (6%)

Аудио #2
Идентификатор : 189 (0xBD)-129 (0x81)
Формат : AC-3
Формат/Информация : Audio Coding 3
Расширение режима : CM (complete main)
Режим смешивания : DVD-Video
Продолжительность : 21 м.
Вид битрейта : Постоянный
Битрейт : 384 Кбит/сек
Каналы : 6 каналов
Расположение каналов : Front: L C R, Side: L R, LFE
Частота : 48,0 КГц
Битовая глубина : 16 бит
Метод сжатия : С потерями
Задержка видео : -74 мс.
Размер потока : 58,4 Мбайт (6%)

Аудио #3
Идентификатор : 189 (0xBD)-130 (0x82)
Формат : AC-3
Формат/Информация : Audio Coding 3
Расширение режима : CM (complete main)
Режим смешивания : DVD-Video
Продолжительность : 21 м.
Вид битрейта : Постоянный
Битрейт : 384 Кбит/сек
Каналы : 6 каналов
Расположение каналов : Front: L C R, Side: L R, LFE
Частота : 48,0 КГц
Битовая глубина : 16 бит
Метод сжатия : С потерями
Задержка видео : -74 мс.
Размер потока : 58,4 Мбайт (6%)
Свернуть

Скриншоты
Скриншоты меню
Изображение
Изображение
Изображение
Свернуть
Изображение
Изображение
Изображение
Изображение
Изображение
Свернуть

Изображение
Не в сети
Профиль  
 Добавлено: 2011-06-23 19:27 (спустя 2 дня 2 часа)
Аватара пользователя
Стаж: 7 лет 3 месяца
Возраст: 34
Сообщений: 127
НОрмально можно посмотреть!!
Спасибо автору!!
всем качать посежу на раздаче 2 недели!!
Не в сети
Профиль  
 Добавлено: 2011-09-14 12:09 (спустя 2 месяца 20 дней)
Стаж: 6 лет 8 месяцев
Сообщений: 8
сасибо
Не в сети
Профиль  
 Добавлено: 2011-09-24 20:32 (спустя 10 дней)
Стаж: 5 лет 6 месяцев
Сообщений: 3
:a_g_a:
Не в сети
Профиль  
Начать новую темуОтветить на тему  [ Сообщений: 4 ] 
Вы не можете начинать темы
Вы не можете отвечать на сообщения
Вы не можете редактировать свои сообщения
Вы не можете удалять свои сообщения