Правила форума

  • В этом разделе создание новых тем Запрещено.
  • Для создания новых тем пользуйтесь Корневым разделом DVD и HD фильмы.
Начать новую темуОтветить на тему  [ Сообщений: 6 ] 
Торрент файл
Размер: 4.37 GB • Зарегистрирован: 4 года 9 месяцев • Статус: Проверено
Скачан: 848 раз • Желающих скачать: 0 • Поблагодарили: 157 раз
 Раздают: 0  |  0 KB/s  ]   Качают: 0  |  0 KB/s  ] 
 Полного источника не было 7 часов 
Сообщения
 Добавлено: 2012-02-11 15:53
Руководитель релиз-группы
Аватара пользователя
Стаж: 7 лет 5 месяцев
Возраст: 31
Сообщений: 3406
Спасибок: 46729
Лайков: 5
Изображение

Сумерки. Сага. Рассвет: Часть 1
The Twilight Saga: Breaking Dawn - Part 1


Год выпуска: 2011
Страна: США
Слоган: «Вечность - это только начало»
Жанр: фэнтези, драма, мелодрама
Продолжительность: 01:52:16
Перевод: Профессиональный (полное дублирование)
Режиссер: Билл Кондон
Сценарий: Мелисса Розенберг, Стефани Майер
Продюсер: Вик Годфри, Стефани Майер, Карен Розенфельт
Оператор: Гильермо Наварро
Композитор: Картер Бёруэлл
В ролях: Кристен Стюарт, Роберт Паттинсон, Тэйлор Лотнер, Билли Бёрк, Питер Фачинелли, Элизабет Ризер, Келлан Латс, Никки Рид, Джексон Рэтбоун, Эшли Грин
Бюджет: $110 000 000
Сборы в мире: $701 989 889
Описание: В четвертой части Белла Свон оказывается перед непростым выбором - сохранить жизнь себе или своему ребенку (наполовину вампиру, наполовину человеку). Она решает оставить малыша, но Эдвард и остальные члены семьи Каллен категорически против.
Помощи Белле ждать не от кого, но она приходит неожиданно, от того, от кого её совсем не ждали. Вдвоем Белла и Розали пытаются сохранить жизнь малышу, даже не догадываясь, к каким ужасающим последствиям это приведет.
Изображение
MPAA: Изображение
Релиз: Изображение Раздача группы: Изображение
Качество: DVD5 (сжатый)
Формат: DVD Video
Видео: MPEG2; PAL 16:9 (720x576)
Аудио #1: Dolby AC3, 6 ch, 448 Kbps Russian
Аудио #2: Dolby AC3, 6 ch, 448 Kbps English
Субтитры: русские, украинские
Дополнительная информация :
Исходник : DVD9 (7.70 Гб - 1-й диск) [лицензия, PAL 16:9]
Убрано : реклама, заставки, предупреждения, Russian (DTS, 6 ch), Ukrainian (Dolby AC3, 6 ch), English (Dolby AC3, 2 ch)
Сжатие фильма : 38.2 % сжатия (без учета ручного перераспределения битрейта, за счет большего сжатия конечных титров)
использовались программы
    DVDRemakePro
    Photoshop
    MuxMan
    Rebuilder и CCE (Cinema Craft Encoder), 5 проходов
    Работоспособность проверена на софтовом плеере Windows Media и бытовом LG
Свернуть
DVDInfo
    Title: Sumerki.saga.rassvet.1_2011_DVD5.[R.G.Daredevil]
    Size: 4.37 Gb ( 4 580 014,00 KBytes ) - DVD-5
    Enabled regions: 1, 2, 3, 4, 5, 6, 7, 8

    VTS_01 :
    Play Length: 00:00:00
    Video: PAL 4:3 (720x576) VBR

    VTS_02 :
    Play Length: 00:00:00
    Video: PAL 16:9 (720x576) VBR, Auto Letterboxed
    Audio:
    English (Dolby AC3, 2 ch)

    VTS_03 :
    Play Length: 01:52:16
    Video: PAL 16:9 (720x576) VBR, Auto Pan&Scan
    Audio:
    Russian (Dolby AC3, 6 ch)
    English (Dolby AC3, 6 ch)
    Subtitles:
    Russian
    Ukrainian
    Russian

    * Menus Information *

    VIDEO_TS Menu
    Video:
    NTSC 4:3 (720x480) VBR
    Auto Pan&Scan, Auto Letterboxed
    English Language Unit :
    Title Menu

    VTS_01 Menu
    Video:
    PAL 16:9 (720x576) VBR
    Auto Pan&Scan
    Audio:
    Not specified (Dolby AC3, 2 ch)
    English Language Unit :
    Root Menu

    VTS_02 Menu
    Video:
    PAL 4:3 (720x576) VBR
    English Language Unit :
    Root Menu

    VTS_03 Menu
    Video:
    PAL 4:3 (720x576) VBR
    English Language Unit :
    Root Menu
Свернуть
mediainfo
    Формат : MPEG-PS
    Размер файла : 1024 Мбайт
    Продолжительность : 25 м.
    Режим общего битрейта : Переменный
    Общий поток : 5665 Кбит/сек

    Видео
    Идентификатор : 224 (0xE0)
    Формат : MPEG Video
    Версия формата : Version 2
    Профиль формата : Main@Main
    Параметр BVOP формата : Да
    Параметр матрицы формата : Выборочная
    Продолжительность : 25 м.
    Вид битрейта : Переменный
    Битрейт : 4656 Кбит/сек
    Максимальный битрейт : 7533 Кбит/сек
    Ширина : 720 пикселей
    Высота : 576 пикселей
    Соотношение сторон : 16:9
    Частота кадров : 25,000 кадров/сек
    Стандарт вещания : PAL
    Цветовое пространство : YUV
    Субдискретизация насыщенности : 4:2:0
    Битовая глубина : 8 бит
    Тип развёртки : Чересстрочная
    Порядок развёртки : Верхнее поле первое
    Метод сжатия : С потерями
    Бит/(Пиксели*Кадры) : 0.449
    Размер потока : 842 Мбайт (82%)

    Аудио #1
    Идентификатор : 189 (0xBD)-128 (0x80)
    Формат : AC-3
    Формат/Информация : Audio Coding 3
    Расширение режима : CM (complete main)
    Режим смешивания : DVD-Video
    Продолжительность : 25 м.
    Вид битрейта : Постоянный
    Битрейт : 448 Кбит/сек
    Каналы : 6 каналов
    Расположение каналов : Front: L C R, Side: L R, LFE
    Частота : 48,0 КГц
    Битовая глубина : 16 бит
    Метод сжатия : С потерями
    Размер потока : 81,0 Мбайт (8%)

    Аудио #2
    Идентификатор : 189 (0xBD)-129 (0x81)
    Формат : AC-3
    Формат/Информация : Audio Coding 3
    Расширение режима : CM (complete main)
    Режим смешивания : DVD-Video
    Продолжительность : 25 м.
    Вид битрейта : Постоянный
    Битрейт : 448 Кбит/сек
    Каналы : 6 каналов
    Расположение каналов : Front: L C R, Side: L R, LFE
    Частота : 48,0 КГц
    Битовая глубина : 16 бит
    Метод сжатия : С потерями
    Размер потока : 81,0 Мбайт (8%)

    Текст #1
    Идентификатор : 189 (0xBD)-34 (0x22)
    Формат : RLE
    Формат/Информация : Run-length encoding
    Режим смешивания : DVD-Video
    Продолжительность : 25 м.
    Задержка видео : 4 с. 440 мс.

    Текст #2
    Идентификатор : 189 (0xBD)-32 (0x20)
    Формат : RLE
    Формат/Информация : Run-length encoding
    Режим смешивания : DVD-Video

    Текст #3
    Идентификатор : 189 (0xBD)-33 (0x21)
    Формат : RLE
    Формат/Информация : Run-length encoding
    Режим смешивания : DVD-Video

    Меню
Свернуть
Знаете ли Вы, что...
  • «Рассвет» — четвертый роман серии «Сумерки» писательницы Стефани Майер. Книга вышла впервые в США 2 августа 2008 года, продажа началась в полночь и сопровождалась вечеринками для фанатов на территории книжных магазинов. Первый тираж составлял 3,7 миллионов экземпляров, из которых 1,3 миллиона были раскуплены за первые 24 часа продаж, что стало новым рекордом печатного издательства «Hachette Book Group».
  • Ренесми – имя дочери Эдварда Каллена и Беллы Свон получено путем объединения имен матери Беллы, Рене и приемной матери Эдварда, Эсме. Ее второе имя, Карли – это комбинация имен Карлайла, приемного отца Эдварда, и Чарли, отца Беллы.
  • Стефани Майер мелькнула в «Рассвете» в еще одном камео: на свадьбе, когда Белла идет с отцом под венец, её можно заметить среди гостей.
  • София Коппола была заинтересована в постановке «Рассвета», но после того, как Summit Entertainment приняла решение разделить последнюю книгу на две части, Коппола переключилась на поиск другого проекта.
  • На пост режиссера дилогии «Рассвет» рассматривались Марк Уотерс и Гас Ван Сент. В итоге режиссерское кресло занял Билл Кондон.
  • Роберт Пэттинсон в течение шести месяцев (перед съемками и во время них) соблюдал жесткую диету и тренировался в спортивном зале. Как он признался позже, ему хотелось выглядеть более мужественным для сцены первой брачной ночи Беллы и Эдварда.
  • Картер Бёруэлл вернулся в кресло композитора по приглашению режиссера Билла Кондона, с которым они уже ранее работали над другой кинолентой.
Свернуть
Скриншоты

меню
Изображение
Изображение
Изображение
Свернуть
Изображение
Изображение
Изображение
Изображение
Изображение
Свернуть
Не в сети
Профиль  
 Добавлено: 2012-02-12 14:42 (спустя 22 часа)
Аватара пользователя
Стаж: 6 лет 3 месяца
Сообщений: 19
спасибо!!!
Не в сети
Профиль  
 Добавлено: 2012-02-13 14:34 (спустя 23 часа)
Аватара пользователя
Стаж: 6 лет 10 месяцев
Сообщений: 30
Лайков: 3
:kav_boy: Полное г-о не тратьти время.
Не в сети
Профиль  
 Добавлено: 2012-02-26 17:30 (спустя 13 дней)
Стаж: 6 лет 8 месяцев
Сообщений: 1
Не нравится - не смотрите! Зачем заходить в тему и писать всякую х...нь
Не в сети
Профиль  
 Добавлено: 2012-03-25 19:33 (спустя 28 дней)
Стаж: 8 лет 1 месяц
Сообщений: 23
Спасибок: 11
Дайте скорости, пожалуйста...
Не в сети
Профиль  
 Добавлено: 2012-04-14 20:47 (спустя 20 дней)
Стаж: 7 лет 2 месяца
Сообщений: 91
спасибки)
Не в сети
Профиль  
Начать новую темуОтветить на тему  [ Сообщений: 6 ] 
Вы не можете начинать темы
Вы не можете отвечать на сообщения
Вы не можете редактировать свои сообщения
Вы не можете удалять свои сообщения