Правила форума

  • В этом разделе создание новых тем Запрещено.
  • Для создания новых тем пользуйтесь Корневым разделом DVD и HD фильмы.
Начать новую темуОтветить на тему  [ Сообщений: 2 ] 
Торрент файл
Размер: 4.14 GB • Зарегистрирован: 4 года 3 месяца • Статус: Проверено
Скачан: 157 раз • Желающих скачать: 0 • Поблагодарили: 21 раз
 Раздают: 0  |  0 KB/s  ]   Качают: 0  |  0 KB/s  ] 
 Полного источника не было 1 год 3 месяца 
Сообщения
 Добавлено: 2012-08-16 22:39
DVD Release Group
Аватара пользователя
Стаж: 7 лет 1 месяц
Сообщений: 3569
Спасибок: 247804
Лайков: 1020
Супер Майк

Magic Mike


Изображение


Год выпуска: 2012
Страна: США
Жанр: Драма, комедия
Продолжительность: 01:50:12
Перевод: Профессиональный (полное дублирование)
Cубтитры: Нет
Режиссер: Стивен Содерберг
В ролях: Ченнинг Татум, Алекс Петтифер, Мэттью МакКонахи, Мэтт Бомер, Джо Манганьелло, Кевин Нэш, Оливия Манн, Джеймс Мартин Келли, Коуди Хорн, Рейд Каролин
Описание: Это фильм о настоящей мужской дружбе в мире стриптизеров. Главный герой — танцор, который обучает молодого парня, как необходимо вести себя на сцене и около шеста.
Кинопоиск: 6.3 (5295)
IMDb: 6.5 (13509)
Дополнительно: Нет
Качество: DVD5
Формат: DVD Video
Видео кодек: MPEG2
Аудио кодек: AC3
Видео: 720х576 25fps 5526Kbps
Аудио: 48kHz 6ch 384Kbps
"MediaInfo"
Формат : MPEG-PS
Размер файла : 1024 Мбайт
Продолжительность : 23 м.
Режим общего битрейта : Переменный
Общий поток : 6030 Кбит/сек

Видео
Идентификатор : 224 (0xE0)
Формат : MPEG Video
Версия формата : Version 2
Профиль формата : Main@Main
Параметр BVOP формата : Да
Параметр матрицы формата : Выборочная
Продолжительность : 23 м.
Вид битрейта : Переменный
Битрейт : 5526 Кбит/сек
Максимальный битрейт : 8000 Кбит/сек
Ширина : 720 пикселей
Высота : 576 пикселей
Соотношение сторон : 16:9
Частота кадров : 25,000 кадров/сек
Стандарт вещания : PAL
Цветовое пространство : YUV
Субдискретизация насыщенности : 4:2:0
Битовая глубина : 8 бит
Тип развёртки : Чересстрочная
Порядок развёртки : Верхнее поле первое
Метод сжатия : С потерями
Бит/(Пиксели*Кадры) : 0.533
Размер потока : 938 Мбайт (92%)

Аудио
Идентификатор : 189 (0xBD)-128 (0x80)
Формат : AC-3
Формат/Информация : Audio Coding 3
Расширение режима : CM (complete main)
Режим смешивания : DVD-Video
Продолжительность : 23 м.
Вид битрейта : Постоянный
Битрейт : 384 Кбит/сек
Каналы : 6 каналов
Расположение каналов : Front: L C R, Side: L R, LFE
Частота : 48,0 КГц
Битовая глубина : 16 бит
Метод сжатия : С потерями
Размер потока : 65,2 Мбайт (6%)

Меню
Свернуть

"Скриншоты"
Изображение
Изображение
Изображение
Изображение
Изображение
Изображение
Свернуть

Раздача группы:
Изображение
Не в сети
Профиль  
 Добавлено: 2012-08-17 15:37 (спустя 16 часов)
Стаж: 6 лет 3 месяца
Сообщений: 493
Лайков: 28
хе-хе... Вот о чем на самом деле хотел снимать Содерберг! А как шифровался-то, как шифровался... :-D
Не в сети
Профиль  
Начать новую темуОтветить на тему  [ Сообщений: 2 ] 
Вы не можете начинать темы
Вы не можете отвечать на сообщения
Вы не можете редактировать свои сообщения
Вы не можете удалять свои сообщения