Правила форума

  • В этом разделе создание новых тем Запрещено.
  • Для создания новых тем пользуйтесь Корневым разделом DVD и HD фильмы.
Начать новую темуОтветить на тему  [ Сообщений: 7 ] 
Торрент файл
Размер: 4.19 GB • Зарегистрирован: 4 года 4 месяца • Статус: Проверено
Скачан: 106 раз • Желающих скачать: 0 • Поблагодарили: 19 раз
 Раздают: 0  |  0 KB/s  ]   Качают: 0  |  0 KB/s  ] 
 Полного источника не было 2 года 10 месяцев 
Сообщения
 Добавлено: 2012-07-29 19:43
Top-releaser
Стаж: 4 года 11 месяцев
Сообщений: 311
Спасибок: 3511
Лайков: 2
Изображение
Супертанкер / Super Tanker

Год выпуска | 2011
Страна | США
Жанр | фантастика, фэнтези, боевик
Продолжительность | 01:23:20
Перевод | Профессиональный (многоголосый закадровый) [Лицензия]
Cубтитры: | русские




Режиссер | Джеффри Скотт Ландо / Jeffery Scott LandoИзображение
Сценарий | Натан Аткинс, Джеффри Скотт Ландо
Продюсер | Джеффри Бич, Джон Каппилла, Филлип Дж. Рот
Оператор | Александр Крумов
Композитор | -
В ролях | Велизaр Бинев, Каллум Блу, Сара Браун, Бен Кросс, Оуэн Дэвис, Тобиаш Хьюит, Джон Ласковски, Джон Макк



Описание | Сверхсекретный объект на Аляске хранит страшную тайну времен Холодной войны: смертоносное биологическое оружие, созданное в качестве крайней меры и содержащееся под строжайшим контролем.
Его мощь становится очевидной, когда военный самолет, перевозящий небольшое количество субстанции для тестирования, терпит крушение в Канаде, стирая с лица земли целый город.
Правительство решает уничтожить смертельный материал, затопив его в подводном котловане, однако их планы нарушает аномальная приливная волна…



Бонусы| нет


Изображение 2.882 (149)

Изображение



Мировая премьера | 29 января 2011
Релиз на DVD | 6 марта 2012, «Lizard Cinema Trade»




Качество: DVD5 R5
Формат: DVD-Video
Видео кодек: MPEG2
Аудио кодек: AC3
Видео | PAL 16:9 (720x576(0.560)) MPEG Video, 25,000 кадр/сек, 5810 Кбит/сек
Аудио #1 | Russian (Dolby AC3, 6 ch) 384 Кбит/сек, 48,0 КГц
Аудио #2 | Russian (Dolby AC3, 2 ch) 192 Кбит/сек, 48,0 КГц
Аудио #3 | English (Dolby AC3, 2 ch) 192 Кбит/сек, 48,0 КГц



Скриншоты Меню
Изображение
Изображение
Изображение
Свернуть



MediaInfo
Общее
Полное имя : G:\Новинки 2012\Supertanker.2011.DVD5\VIDEO_TS\VTS_02_1.VOB
Формат : MPEG-PS
Размер файла : 1024 Мбайт
Продолжительность : 21 м.
Режим общего битрейта : Переменный
Общий поток : 6712 Кбит/сек

Видео
Идентификатор : 224 (0xE0)
Формат : MPEG Video
Версия формата : Version 2
Профиль формата : Main@Main
Параметр BVOP формата : Да
Параметр матрицы формата : Выборочная
Параметр GOP формата : M=3, N=12
Продолжительность : 21 м.
Вид битрейта : Переменный
Битрейт : 5810 Кбит/сек
Максимальный битрейт : 7700 Кбит/сек
Ширина : 720 пикселей
Высота : 576 пикселей
Соотношение сторон : 16:9
Частота кадров : 25,000 кадров/сек
Стандарт вещания : PAL
Цветовое пространство : YUV
Субдискретизация насыщенности : 4:2:0
Битовая глубина : 8 бит
Тип развёртки : Чересстрочная
Порядок развёртки : Верхнее поле первое
Метод сжатия : С потерями
Бит/(Пиксели*Кадры) : 0.560
Размер потока : 886 Мбайт (87%)
Основные цвета : BT.470-2 System B, BT.470-2 System G
Характеристики трансфера : BT.470-2 System B, BT.470-2 System G
Коэффициенты матрицы : SMPTE 170M

Аудио #1
Идентификатор : 189 (0xBD)-128 (0x80)
Формат : AC-3
Формат/Информация : Audio Coding 3
Расширение режима : CM (complete main)
Режим смешивания : DVD-Video
Продолжительность : 21 м.
Вид битрейта : Постоянный
Битрейт : 384 Кбит/сек
Каналы : 6 каналов
Расположение каналов : Front: L C R, Side: L R, LFE
Частота : 48,0 КГц
Битовая глубина : 16 бит
Метод сжатия : С потерями
Размер потока : 58,6 Мбайт (6%)

Аудио #2
Идентификатор : 189 (0xBD)-129 (0x81)
Формат : AC-3
Формат/Информация : Audio Coding 3
Расширение режима : CM (complete main)
Режим смешивания : DVD-Video
Продолжительность : 21 м.
Вид битрейта : Постоянный
Битрейт : 192 Кбит/сек
Каналы : 2 канала
Расположение каналов : Front: L R
Частота : 48,0 КГц
Битовая глубина : 16 бит
Метод сжатия : С потерями
Размер потока : 29,3 Мбайт (3%)

Аудио #3
Идентификатор : 189 (0xBD)-130 (0x82)
Формат : AC-3
Формат/Информация : Audio Coding 3
Расширение режима : CM (complete main)
Режим смешивания : DVD-Video
Продолжительность : 21 м.
Вид битрейта : Постоянный
Битрейт : 192 Кбит/сек
Каналы : 2 канала
Расположение каналов : Front: L R
Частота : 48,0 КГц
Битовая глубина : 16 бит
Метод сжатия : С потерями
Размер потока : 29,3 Мбайт (3%)

Текст
Идентификатор : 189 (0xBD)-32 (0x20)
Формат : RLE
Формат/Информация : Run-length encoding
Режим смешивания : DVD-Video
Свернуть



DVDInfo
Title:
Size: 4.19 Gb ( 4 390 216 KBytes ) - DVD-5
Enabled regions: 1, 2, 3, 4, 5, 6, 7, 8

VTS_01 :
Play Length: 00:00:20
Video: PAL 4:3 (720x576) VBR
Audio:
Russian (Dolby AC3, 2 ch)

VTS_02 :
Play Length: 01:23:20
Video: PAL 16:9 (720x576) VBR, Auto Pan&Scan, Auto Letterboxed
Audio:
Russian (Dolby AC3, 6 ch)
Russian (Dolby AC3, 2 ch)
English (Dolby AC3, 2 ch)
Subtitles:
Russian

Menu Video:
PAL 4:3 (720x576) VBR
Menu English Language Unit :
Root Menu
Chapter (PTT) Menu
Subpicture Menu
Audio Menu
Свернуть


Скриншоты


Изображение


Изображение


Изображение


Свернуть

Смотреть обязательно
Изображение
Свернуть
Не в сети
Профиль  
 Добавлено: 2012-07-29 22:37 (спустя 2 часа 53 минуты)
Аватара пользователя
Стаж: 9 лет 1 месяц
Сообщений: 107
Спасибок: 7
тв3? ))
Не в сети
Профиль  
 Добавлено: 2012-07-29 22:41 (спустя 3 минуты)
Top-releaser
Стаж: 4 года 11 месяцев
Сообщений: 311
Спасибок: 3511
Лайков: 2

Shmuh:

тв3? ))
:ne_znayu:
Не в сети
Профиль  
 Добавлено: 2012-07-30 03:18 (спустя 4 часа)
Аватара пользователя
Стаж: 7 лет 2 месяца
Сообщений: 7167
Спасибок: 82015
Лайков: 2438
Shmuh

:a_g_a:
Не в сети
Профиль  
 Добавлено: 2012-07-30 13:54 (спустя 10 часов)
Аватара пользователя
Стаж: 6 лет 6 месяцев
Возраст: 30
Сообщений: 3614
Спасибок: 2661
Лайков: 1
ошибся раздел
по фильму...шлак
_________________
Иногда мне кажется,что я пишу посты лишь потому,что мне хочется что то написать
Не в сети
Профиль  
 Добавлено: 2012-07-30 16:13 (спустя 2 часа 18 минут)
Top-releaser
Стаж: 4 года 11 месяцев
Сообщений: 311
Спасибок: 3511
Лайков: 2

Алёнушка:

ошибся раздел
по фильму...шлак
:ny_tik: :ny_tik: :ny_tik:
Не в сети
Профиль  
 Добавлено: 2012-08-16 21:20 (спустя 17 дней)
Аватара пользователя
Стаж: 7 лет 4 месяца
Сообщений: 75
тв3 первый мистический
Не в сети
Профиль  
Начать новую темуОтветить на тему  [ Сообщений: 7 ] 
Вы не можете начинать темы
Вы не можете отвечать на сообщения
Вы не можете редактировать свои сообщения
Вы не можете удалять свои сообщения