Правила форума

  • В этом разделе создание новых тем Запрещено.
  • Для создания новых тем пользуйтесь Корневым разделом DVD и HD фильмы.
Начать новую темуОтветить на тему  [ Сообщений: 2 ] 
Торрент файл
Размер: 6.93 GB • Зарегистрирован: 4 года 6 месяцев • Статус: Проверено
Скачан: 99 раз • Желающих скачать: 0 • Поблагодарили: 26 раз
 Раздают: 0  |  0 KB/s  ]   Качают: 0  |  0 KB/s  ] 
 Полного источника не было 3 года 1 месяц 
Сообщения
 Добавлено: 2012-06-05 21:32
DVD Release Group
Аватара пользователя
Стаж: 7 лет 1 месяц
Сообщений: 3569
Спасибок: 247804
Лайков: 1020
Свадебный разгром

A Few Best Men

«Этот мальчишник вам не по зубам!»


Изображение


Год выпуска: 2011
Страна: США, Великобритания, Австралия / Screen Australia, Quickfire Films, Screen NSW
Жанр: Комедия
Продолжительность: 01:32:38
Перевод: Профессиональный (полное дублирование)
Cубтитры: Русские
Режиссер: Стефан Эллиотт
В ролях: Ксавьер Сэмюэл, Крис Маршалл, Кевин Бишоп, Тим Драксл, Лаура Брент, Ребел Уилсон, Оливия Ньютон-Джон, Джонатан Биггинс, Стив Ле Маркванд
Описание: Как празднуют свадьбу в Австралии? Да круче, чем новый год в России. Шикарная церемония, море алкоголя и тройка верных друзей, решивших оторваться на полную катушку. Сможет ли настоящая любовь пережить эти испытания?
Кинопоиск: 6.2 (937)
IMDb: 5.9 (1622)
Дополнительно: На съёмочной площадке; Смотрите на DVD; Создатели и исполнители; Фотогалерея; Интервью с актёрами; Трейлер.
Качество: DVD9
Формат: DVD Video
Видео кодек: MPEG2
Аудио кодек: AC3, DTS
Видео: 720х576 25fps 5931Kbps
Аудио:
Аудио Rus: AC3 48kHz 6ch 448Kbps
Аудио Eng: AC3 48kHz 6ch 448Kbps
Аудио Rus: DTS 48kHz 6ch 755Kbps
"MediaInfo"
Формат : MPEG-PS
Размер файла : 1024 Мбайт
Продолжительность : 18 м.
Режим общего битрейта : Переменный
Общий поток : 7735 Кбит/сек

Видео
Идентификатор : 224 (0xE0)
Формат : MPEG Video
Версия формата : Version 2
Профиль формата : Main@Main
Параметр BVOP формата : Да
Параметр матрицы формата : По умолчанию
Параметр GOP формата : M=3, N=12
Продолжительность : 18 м.
Вид битрейта : Переменный
Битрейт : 5931 Кбит/сек
Максимальный битрейт : 8000 Кбит/сек
Ширина : 720 пикселей
Высота : 576 пикселей
Соотношение сторон : 16:9
Частота кадров : 25,000 кадров/сек
Стандарт вещания : PAL
Цветовое пространство : YUV
Субдискретизация насыщенности : 4:2:0
Битовая глубина : 8 бит
Тип развёртки : Прогрессивная
Метод сжатия : С потерями
Бит/(Пиксели*Кадры) : 0.572
Размер потока : 785 Мбайт (77%)

Аудио #1
Идентификатор : 189 (0xBD)-128 (0x80)
Формат : AC-3
Формат/Информация : Audio Coding 3
Расширение режима : CM (complete main)
Режим смешивания : DVD-Video
Продолжительность : 18 м.
Вид битрейта : Постоянный
Битрейт : 448 Кбит/сек
Каналы : 6 каналов
Расположение каналов : Front: L C R, Side: L R, LFE
Частота : 48,0 КГц
Битовая глубина : 16 бит
Метод сжатия : С потерями
Размер потока : 59,3 Мбайт (6%)

Аудио #2
Идентификатор : 189 (0xBD)-129 (0x81)
Формат : AC-3
Формат/Информация : Audio Coding 3
Расширение режима : CM (complete main)
Режим смешивания : DVD-Video
Продолжительность : 18 м.
Вид битрейта : Постоянный
Битрейт : 448 Кбит/сек
Каналы : 6 каналов
Расположение каналов : Front: L C R, Side: L R, LFE
Частота : 48,0 КГц
Битовая глубина : 16 бит
Метод сжатия : С потерями
Размер потока : 59,3 Мбайт (6%)

Аудио #3
Идентификатор : 189 (0xBD)-138 (0x8A)
Формат : DTS
Формат/Информация : Digital Theater Systems
Режим смешивания : DVD-Video
Продолжительность : 18 м.
Вид битрейта : Постоянный
Битрейт : 755 Кбит/сек
Каналы : 6 каналов
Расположение каналов : Front: L C R, Side: L R, LFE
Частота : 48,0 КГц
Битовая глубина : 24 бит
Метод сжатия : С потерями
Размер потока : 99,8 Мбайт (10%)

Текст
Идентификатор : 189 (0xBD)-32 (0x20)
Формат : RLE
Формат/Информация : Run-length encoding
Режим смешивания : DVD-Video

Меню
Свернуть

"Скриншоты"
Изображение
Изображение
Изображение
Изображение
Изображение
Изображение
Изображение
Изображение
Свернуть

Раздача группы:
Изображение
Не в сети
Профиль  
 Добавлено: 2012-06-06 13:12 (спустя 15 часов)
Аватара пользователя
Стаж: 4 года 6 месяцев
Сообщений: 4
прикольный кин ;;-)))
Не в сети
Профиль  
Начать новую темуОтветить на тему  [ Сообщений: 2 ] 
Вы не можете начинать темы
Вы не можете отвечать на сообщения
Вы не можете редактировать свои сообщения
Вы не можете удалять свои сообщения