Правила форума

  • В этом разделе создание новых тем Запрещено.
  • Для создания новых тем пользуйтесь Корневым разделом DVD и HD фильмы.
Начать новую темуОтветить на тему  [ Сообщений: 7 ] 
Торрент файл
Размер: 7.25 GB • Зарегистрирован: 3 года 6 месяцев • Статус: Проверено
Скачан: 154 раза • Желающих скачать: 0 • Поблагодарили: 46 раз
 Раздают: 0  |  0 KB/s  ]   Качают: 0  |  0 KB/s  ] 
 Полного источника не было 5 часов 
Сообщения
 Добавлено: 2013-05-26 04:02
Руководитель релиз-группы
Аватара пользователя
Стаж: 7 лет 4 месяца
Возраст: 31
Сообщений: 3407
Спасибок: 46729
Лайков: 5
Изображение

Таймлесс. Рубиновая книга
Rubinrot


Год выпуска: 2013
Страна: Германия
Слоган: «Любовь будет вечной, если ты - повелитель времени»
Жанр: фантастика, фэнтези, приключения
Продолжительность: 01:56:24
Перевод: Профессиональный (полное дублирование) [лицензия]
Режиссер: Феликс Фуксштайнер
Сценарий: Катарина Шёде, Керстин Гир
Продюсер: Том Блинингер, Феликс Фуксштайнер, Роберт Марсиньяк, Катарина Шёде, Маркус Зиммер
Оператор: Соня Ром
Композитор: Филипп Ф. Кёльмель
В ролях: Мария Эрих, Яннис Нивёнер, Вероника Феррес, Уве Коккиш, Катарина Тальбах, Готфрид Йон, Герлинде Локкер, Рюдигер Фоглер, Флориан Бартоломай, Дженнифер Лотси, Йозефине Пройсс, Лаура Берлин
Сборы в мире: $1 931 896
Описание: Живущая в Лондоне шестнадцатилетняя Гвендолин Шеферд случайно узнает, что обладает уникальным геном путешественника во времени, который унаследовала от прапрабабушки. Теперь девушка может ежедневно переноситься в прошлое, и с каждым днем загадок становится все больше. Что такое «Тайна Двенадцати»? Кто охотится на путешественников во времени в прошлом? И почему все вокруг думают, что она обладает какой-то «магией ворона»?
Изображение
Релиз: Изображение Раздача группы: Изображение
Качество: DVD9
Формат: DVD Video
Видео: MPEG2; PAL 16:9 (720x576)
Аудио #1: Dolby AC3, 6 ch, 384 Kbps Russian
Аудио #2: Dolby AC3, 6 ch, 384 Kbps Deutsch
Аудио #3: Dolby AC3, 2 ch, 192 Kbps Russian
Субтитры: русские
Дополнительно: интервью, новинки
DVDInfo
    Title: Tajmless.Rubinovaja.kniga.2013.D.DVD.IRONCLUB
    Size: 7.25 Gb ( 7 607 066,00 KBytes ) - DVD-9
    Enabled regions: 1, 2, 3, 4, 5, 6, 7, 8

    VTS_01 :
    Play Length: 00:00:01+01:56:20+00:00:01
    Video: PAL 16:9 (720x576) VBR, Auto Letterboxed
    Audio:
    Russian (Dolby AC3, 6 ch)
    Russian (Dolby AC3, 2 ch)
    Deutsch (Dolby AC3, 6 ch)
    Subtitles:
    Russian

    VTS_02 :
    Play Length: 00:00:01+00:00:05+00:00:12
    Video: PAL 16:9 (720x576) VBR, Auto Letterboxed
    Audio:
    Russian (Dolby AC3, 6 ch)

    VTS_03 :
    Play Length: 00:00:01+00:00:08+00:00:01
    Video: PAL 16:9 (720x576) VBR, Auto Letterboxed
    Audio:
    Russian (Dolby AC3, 2 ch)

    VTS_04 :
    Play Length: 00:00:01+00:02:22+00:00:01
    Video: PAL 16:9 (720x576) VBR, Auto Letterboxed
    Audio:
    Russian (Dolby AC3, 2 ch)

    VTS_05 :
    Play Length: 00:00:01+00:03:31+00:00:01+00:02:15+00:00:01+00:01:55+00:00:01
    Video: PAL 16:9 (720x576) VBR, Auto Letterboxed
    Audio:
    Russian (Dolby AC3, 2 ch)
Свернуть
mediainfo
    Формат : MPEG-PS
    Размер файла : 1024 Мбайт
    Продолжительность : 17 м.
    Общий поток : 8402 Кбит/сек

    Видео
    Идентификатор : 224 (0xE0)
    Формат : MPEG Video
    Версия формата : Version 2
    Профиль формата : Main@Main
    Параметр BVOP формата : Да
    Параметр матрицы формата : Выборочная
    Продолжительность : 17 м.
    Битрейт : 7275 Кбит/сек
    Максимальный битрейт : 6000 Кбит/сек
    Ширина : 720 пикселей
    Высота : 576 пикселей
    Соотношение сторон : 16:9
    Частота кадров : 25,000 кадров/сек
    Стандарт вещания : PAL
    Цветовое пространство : YUV
    Субдискретизация насыщенности : 4:2:0
    Битовая глубина : 8 бит
    Тип развёртки : Чересстрочная
    Порядок развёртки : Нижнее поле первое
    Метод сжатия : С потерями
    Бит/(Пиксели*Кадры) : 0.702
    Размер потока : 887 Мбайт (87%)

    Аудио #1
    Идентификатор : 189 (0xBD)-128 (0x80)
    Формат : AC-3
    Формат/Информация : Audio Coding 3
    Расширение режима : CM (complete main)
    Режим смешивания : DVD-Video
    Продолжительность : 17 м.
    Вид битрейта : Постоянный
    Битрейт : 384 Кбит/сек
    Каналы : 6 каналов
    Расположение каналов : Front: L C R, Side: L R, LFE
    Частота : 48,0 КГц
    Битовая глубина : 16 бит
    Метод сжатия : С потерями
    Размер потока : 46,8 Мбайт (5%)

    Аудио #2
    Идентификатор : 189 (0xBD)-129 (0x81)
    Формат : AC-3
    Формат/Информация : Audio Coding 3
    Расширение режима : CM (complete main)
    Режим смешивания : DVD-Video
    Продолжительность : 17 м.
    Вид битрейта : Постоянный
    Битрейт : 192 Кбит/сек
    Каналы : 2 канала
    Расположение каналов : Front: L R
    Частота : 48,0 КГц
    Битовая глубина : 16 бит
    Метод сжатия : С потерями
    Размер потока : 23,4 Мбайт (2%)

    Аудио #3
    Идентификатор : 189 (0xBD)-130 (0x82)
    Формат : AC-3
    Формат/Информация : Audio Coding 3
    Расширение режима : CM (complete main)
    Режим смешивания : DVD-Video
    Продолжительность : 17 м.
    Вид битрейта : Постоянный
    Битрейт : 384 Кбит/сек
    Каналы : 6 каналов
    Расположение каналов : Front: L C R, Side: L R, LFE
    Частота : 48,0 КГц
    Битовая глубина : 16 бит
    Метод сжатия : С потерями
    Размер потока : 46,8 Мбайт (5%)

    Текст
    Идентификатор : 189 (0xBD)-32 (0x20)
    Формат : RLE
    Формат/Информация : Run-length encoding
    Режим смешивания : DVD-Video
    Продолжительность : 17 м.

    Меню

Свернуть
Знаете ли Вы, что...
  • Фильм снят по мотивам романа Керстин Гир «Таймлесс. Рубиновая книга» (Rubinrot, 2009).
Свернуть
Скриншоты

меню
Изображение

Изображение

Изображение

Изображение
Свернуть
Изображение

Изображение

Изображение

Изображение
Свернуть
Не в сети
Профиль  
 Добавлено: 2013-05-28 21:28 (спустя 2 дня 17 часов)
Аватара пользователя
Стаж: 4 года 10 месяцев
Возраст: 37
Сообщений: 56
Лайков: 6
глянем
Не в сети
Профиль  
 Добавлено: 2013-05-28 22:49 (спустя 1 час 20 минут)
Аватара пользователя
Стаж: 4 года 10 месяцев
Возраст: 37
Сообщений: 56
Лайков: 6
полное говно........
Не в сети
Профиль  
 Добавлено: 2013-05-30 09:04 (спустя 1 день 10 часов)
Аватара пользователя
Стаж: 7 лет
Сообщений: 107
Лайков: 1
аЦтой!
Не в сети
Профиль  
 Добавлено: 2013-05-30 18:42 (спустя 9 часов)
Стаж: 8 лет 3 месяца
Сообщений: 9

nfss11:

полное говно........
Значит качать не будем-время свое тратить
Не в сети
Профиль  
 Добавлено: 2013-06-18 10:28 (спустя 18 дней)
Стаж: 8 лет 1 месяц
Сообщений: 4
фильм ни о чем :)-(:
Не в сети
Профиль  
 Добавлено: 2014-03-04 10:39 (спустя 8 месяцев)
Стаж: 5 лет 1 месяц
Сообщений: 5
Хороший фильм...
Не в сети
Профиль  
Начать новую темуОтветить на тему  [ Сообщений: 7 ] 
Вы не можете начинать темы
Вы не можете отвечать на сообщения
Вы не можете редактировать свои сообщения
Вы не можете удалять свои сообщения