Правила форума

  • В этом разделе создание новых тем Запрещено.
  • Для создания новых тем пользуйтесь Корневым разделом DVD и HD фильмы.
Начать новую темуОтветить на тему  [ Сообщений: 3 ] 
Торрент файл
Размер: 6.29 GB • Зарегистрирован: 3 года 7 месяцев • Статус: Проверено
Скачан: 244 раза • Желающих скачать: 0 • Поблагодарили: 57 раз
 Раздают: 0  |  0 KB/s  ]   Качают: 0  |  0 KB/s  ] 
 Полного источника не было 27 дней 
Сообщения
 Добавлено: 2013-04-20 06:47
Руководитель релиз-группы
Аватара пользователя
Стаж: 7 лет 5 месяцев
Возраст: 31
Сообщений: 3406
Спасибок: 46729
Лайков: 5
Изображение

Тайна перевала Дятлова


Год выпуска: 2013
Страна: Россия, США
Жанр: триллер, ужасы, фантастика
Продолжительность: 01:36:24
Перевод: Профессиональный (многоголосый, закадровый) [лицензия]
Режиссер: Ренни Харлин
Сценарий: Энди Бриггс, Викрам Вит
Продюсер: Александр Роднянский, Сергей Мелькумов, Киа Джэм, Сергей Беспалов, Борис Тетерев
Оператор: Денис Аларкон Рамирес
Композитор: Юрий Потеенко
В ролях: Холли Госс, Мэтт Стокоу, Люк Олбрайт, Райан Хоули, Джемма Аткинсон, Николай Бутенин, Ричард Рейд, Анастасия Бурдина, Валерия Федорович, Нелли Нилсен, Джейн Перри, Игорь Кулачко

Описание: Сюжет фильма основан на реальных событиях, произошедших в 1959-м году. В 2012-м году группа американских студентов, получив грант, отправляется на уральские горы, следуя тем же маршрутом, что и группа Дятлова, чтобы попытаться восстановить картину и разгадать причину таинственной, мистической и до сих пор не разгаданной гибели советских лыжников.
Изображение
MPAA: Изображение
Релиз: Изображение Раздача группы: Изображение
Качество: DVD9
Формат: DVD Video
Видео: MPEG2; PAL 16:9 (720x576)
Аудио #1: Dolby AC3, 6 ch, 448 Kbps Russian
Аудио #2: DTS, 6 ch, 1536 Kbps Russian
Субтитры: нет
Дополнительно: Анонсы
DVDInfo
    Title: Taina.perevala.Dyatlova.2013.P.DVD9
    Size: 6.29 Gb ( 6 591 862,00 KBytes ) - DVD-9
    Enabled regions: 1, 2, 3, 4, 5, 6, 7, 8

    VTS_01 :
    Play Length: 00:00:16
    Video: PAL 4:3 (720x576) VBR
    Audio:
    English (Dolby AC3, 2 ch)

    VTS_02 :
    Play Length: 00:00:07
    Video: PAL 16:9 (720x576) VBR, Auto Letterboxed
    Audio:
    English (MPEG1, 2 ch)

    VTS_03 :
    Play Length: 01:36:24
    Video: PAL 16:9 (720x576) VBR, Auto Letterboxed
    Audio:
    Russian (Dolby AC3, 6 ch)
    Russian (DTS, 5 ch)

    VTS_04 :
    Play Length: 00:00:03
    Video: PAL 16:9 (720x576) VBR, Auto Letterboxed
    Audio:
    English (Dolby AC3, 2 ch)

    VTS_05 :
    Play Length: 00:01:38
    Video: PAL 16:9 (720x576) VBR, Auto Letterboxed
    Audio:
    Russian (LinearPCM, 2 ch)

    VTS_06 :
    Play Length: 00:01:52
    Video: PAL 16:9 (720x576) VBR, Auto Letterboxed
    Audio:
    English (LinearPCM, 2 ch)

    VTS_07 :
    Play Length: 00:01:53
    Video: PAL 16:9 (720x576) VBR, Auto Letterboxed
    Audio:
    Russian (LinearPCM, 2 ch)

    VTS_08 :
    Play Length: 00:02:41
    Video: PAL 16:9 (720x576) VBR, Auto Letterboxed
    Audio:
    English (LinearPCM, 2 ch)

    VTS_09 :
    Play Length: 00:02:18
    Video: PAL 16:9 (720x576) VBR, Auto Letterboxed
    Audio:
    Russian (LinearPCM, 2 ch)
Свернуть
mediainfo
    Формат : MPEG-PS
    Размер файла : 1024 Мбайт
    Продолжительность : 17 м.
    Режим общего битрейта : Переменный
    Общий поток : 8182 Кбит/сек

    Видео
    Идентификатор : 224 (0xE0)
    Формат : MPEG Video
    Версия формата : Version 2
    Профиль формата : Main@Main
    Параметр BVOP формата : Да
    Параметр матрицы формата : По умолчанию
    Параметр GOP формата : M=3, N=12
    Продолжительность : 17 м.
    Вид битрейта : Переменный
    Битрейт : 6062 Кбит/сек
    Максимальный битрейт : 7200 Кбит/сек
    Ширина : 720 пикселей
    Высота : 576 пикселей
    Соотношение сторон : 16:9
    Частота кадров : 25,000 кадров/сек
    Стандарт вещания : PAL
    Цветовое пространство : YUV
    Субдискретизация насыщенности : 4:2:0
    Битовая глубина : 8 бит
    Тип развёртки : Прогрессивная
    Метод сжатия : С потерями
    Бит/(Пиксели*Кадры) : 0.585
    Размер потока : 759 Мбайт (74%)

    Аудио #1
    Идентификатор : 189 (0xBD)-128 (0x80)
    Формат : AC-3
    Формат/Информация : Audio Coding 3
    Расширение режима : CM (complete main)
    Режим смешивания : DVD-Video
    Продолжительность : 17 м.
    Вид битрейта : Постоянный
    Битрейт : 448 Кбит/сек
    Каналы : 6 каналов
    Расположение каналов : Front: L C R, Side: L R, LFE
    Частота : 48,0 КГц
    Битовая глубина : 16 бит
    Метод сжатия : С потерями
    Размер потока : 56,1 Мбайт (5%)

    Аудио #2
    Идентификатор : 189 (0xBD)-137 (0x89)
    Формат : DTS
    Формат/Информация : Digital Theater Systems
    Режим смешивания : DVD-Video
    Продолжительность : 17 м.
    Вид битрейта : Постоянный
    Битрейт : 1510 Кбит/сек
    Каналы : 6 каналов
    Расположение каналов : Front: L C R, Side: L R, LFE
    Частота : 48,0 КГц
    Битовая глубина : 16 бит
    Метод сжатия : С потерями
    Размер потока : 189 Мбайт (18%)

    Меню

Свернуть
Знаете ли Вы, что...
  • 23 января 1959 года группа из девяти опытных лыжных туристов под руководством студента политехнического института Игоря Дятлова отправилась в лыжный поход по горам. Спустя неделю, 1 февраля, группа остановилась на склоне горы Холатчахль (в переводе с мансийского - Гора Мертвецов), неподалеку от безымянного перевала,
    получившего впоследствии имя Дятлова. К 12 февраля они должны были вернуться в цивилизацию и выйти на связь, но в конечной точке маршрута так и не объявились.
  • Официальное следствие предположило, что трагедия произошла из-за схода лавины. Позднее появилось несколько версий случившегося - от криминальных и конспирологических до мистических и паранормальных. Обвиняли диких зверей, беглых заключенных из окрестных колоний, солдат, принявших туристов за беглых заключенных, местных жителей из племени манси, для которых Холатчахль имеет ритуальное значение, военных, якобы испытывавших в отдаленной местности новое секретное
    оружие, агентов иностранной разведки и даже космических пришельцев.
  • О гибели группы Дятлова было написано несколько исследований и снято несколько документальных фильмов. Однако до сих пор никаких внятных и вразумительных объяснений трагедии полувековой давности на сегодняшний день нет.
Свернуть
Скриншоты

меню
Изображение

Изображение

Изображение

Изображение
Свернуть
Изображение

Изображение

Изображение

Изображение
Свернуть
Не в сети
Профиль  
 Добавлено: 2013-04-22 19:01 (спустя 2 дня 12 часов)
Аватара пользователя
Стаж: 5 лет 6 месяцев
Возраст: 35
Сообщений: 51
Спасибок: 2
Лайков: 4
Да ну.....(((
Не в сети
Профиль  
 Добавлено: 2013-04-29 18:39 (спустя 6 дней)
Top-releaser
Аватара пользователя
Стаж: 7 лет 4 месяца
Возраст: 38
Сообщений: 5348
Спасибок: 10068
Лайков: 2937
Дурацкий фильм, ежели честно.......Такой сюжет обг.......ли!
Не в сети
Профиль  
Начать новую темуОтветить на тему  [ Сообщений: 3 ] 
Вы не можете начинать темы
Вы не можете отвечать на сообщения
Вы не можете редактировать свои сообщения
Вы не можете удалять свои сообщения