Правила форума

  • В этом разделе создание новых тем Запрещено.
  • Для создания новых тем пользуйтесь Корневым разделом DVD и HD фильмы.
Начать новую темуОтветить на тему  [ 1 сообщение ] 
Торрент файл
Размер: 3.81 GB • Зарегистрирован: 4 года 1 месяц • Статус: Проверено
Скачан: 33 раза • Желающих скачать: 0 • Поблагодарили: 15 раз
 Раздают: 0  |  0 KB/s  ]   Качают: 0  |  0 KB/s  ] 
 Полного источника не было 3 года 2 месяца 
Сообщения
 Добавлено: 2012-10-08 19:21
Руководитель релиз-группы
Аватара пользователя
Стаж: 7 лет 4 месяца
Возраст: 31
Сообщений: 3407
Спасибок: 46729
Лайков: 5
Изображение

Тайник
Stash House


Год выпуска: 2012
Страна: США
Слоган: «Для каждого злодея - свой день»
Жанр: триллер
Продолжительность: 01:35:24
Перевод: Профессиональный (многоголосый, закадровый) [лицензия]
Режиссер: Эдуардо Родригез
Сценарий: Гэри Спинелли
Продюсер: Стив Ричардс, Джоэл Силвер, Кортни Соломон, Алан Амиел, Моше Дайамант
Оператор: Мэттью Ирвинг
Композитор: Луис Асканио
В ролях: Дольф Лундгрен, Шон Фэрис, Бриана Эвиган, Джон Уэртас, Алишиа Ош, Дон Йессо, Дэвид Коул Боттомс, Шон Бойд, Хавьер Караскуилло, Калеб Микаэльсон, Лэнс Э. Николс, Джеймс Роулингс
Бюджет: $4 000 000
Описание: Молодая пара Дэвид и Эмма Нэш переезжают в недавно приобретённый дом. Однако, радость от новоселья продолжается недолго, а желание супругов видеть в доме воплощение своих мечтаний и уютную обитель совсем скоро сменяется настоящим кошмаром.
Дэвид и Эмма случайно обнаруживают в одной из стен своего жилища огромный тайник с наркотиками. Если бы они знали, что столь неожиданное открытие было лишь началом леденящих кровь событий, - как только перепуганные молодые люди попытались сообщить о своей находке в полицию, к ним пожаловал «милый сосед» Эндрю Спектор с ружьём наперевес. Уж он-то в курсе тёмного прошлого этого домика, который, как оказалось, некогда был обителью крупнейшего наркоторговца. И теперь за содержимое его тайника насмерть борются бывшие подельники, мафиози и прочие головорезы.
Охота за наркотиками, кровавые разборки матёрых преступников, а также ежесекундное предчувствие неминуемой гибели - едва ли семья Нэш могла этого ожидать. Для того, чтобы выжить, молодым людям придётся собрать всю свою волю в кулак, и проявить небывалую находчивость, чтобы дать достойный отпор бандитам...
Изображение
MPAA: Изображение
Релиз: Изображение Раздача группы: Изображение
Качество: DVD5
Формат: DVD Video
Видео: MPEG2; PAL 16:9 (720x576)
Аудио: Dolby AC3, 2 ch, 192 Kbps Russian
Субтитры: нет
Дополнительно: нет
Изображение
DVDInfo
    Title: Tainik_2012_DVD5.[R.G.Daredevil]
    Size: 3.81 Gb ( 3 994 812,00 KBytes ) - DVD-5
    Enabled regions: 1, 2, 3, 4, 5, 6, 7, 8

    VTS_01 :
    Play Length: 01:35:24
    Video: PAL 16:9 (720x576) VBR, Auto Letterboxed
    Audio:
    Russian (Dolby AC3, 2 ch)

    VTS_02 :
    Play Length: 00:00:16+00:00:08
    Video: PAL 16:9 (720x576) VBR, Auto Letterboxed
    Audio:
    Russian (Dolby AC3, 2 ch)
Свернуть
mediainfo
    Формат : MPEG-PS
    Размер файла : 1024 Мбайт
    Продолжительность : 21 м.
    Режим общего битрейта : Переменный
    Общий поток : 6585 Кбит/сек

    Видео
    Идентификатор : 224 (0xE0)
    Формат : MPEG Video
    Версия формата : Version 2
    Профиль формата : Main@Main
    Параметр BVOP формата : Да
    Параметр матрицы формата : Выборочная
    Продолжительность : 21 м.
    Вид битрейта : Переменный
    Битрейт : 6262 Кбит/сек
    Максимальный битрейт : 9000 Кбит/сек
    Ширина : 720 пикселей
    Высота : 576 пикселей
    Соотношение сторон : 16:9
    Частота кадров : 25,000 кадров/сек
    Стандарт вещания : PAL
    Цветовое пространство : YUV
    Субдискретизация насыщенности : 4:2:0
    Битовая глубина : 8 бит
    Тип развёртки : Чересстрочная
    Порядок развёртки : Верхнее поле первое
    Метод сжатия : С потерями
    Бит/(Пиксели*Кадры) : 0.604
    Размер потока : 974 Мбайт (95%)

    Аудио
    Идентификатор : 189 (0xBD)-128 (0x80)
    Формат : AC-3
    Формат/Информация : Audio Coding 3
    Расширение режима : CM (complete main)
    Режим смешивания : DVD-Video
    Продолжительность : 21 м.
    Вид битрейта : Постоянный
    Битрейт : 192 Кбит/сек
    Каналы : 2 канала
    Расположение каналов : Front: L R
    Частота : 48,0 КГц
    Битовая глубина : 16 бит
    Метод сжатия : С потерями
    Размер потока : 29,9 Мбайт (3%)

    Меню
Свернуть
Скриншоты

меню
Изображение

Изображение
Свернуть
Изображение

Изображение

Изображение

Изображение

Изображение
Свернуть
Не в сети
Профиль  
Начать новую темуОтветить на тему  [ 1 сообщение ] 
Вы не можете начинать темы
Вы не можете отвечать на сообщения
Вы не можете редактировать свои сообщения
Вы не можете удалять свои сообщения