Правила форума

  • В этом разделе создание новых тем Запрещено.
  • Для создания новых тем пользуйтесь Корневым разделом DVD и HD фильмы.
Начать новую темуОтветить на тему  [ Сообщений: 9 ] 
Торрент файл
Размер: 4.37 GB • Зарегистрирован: 4 года • Статус: Проверено
Скачан: 445 раз • Желающих скачать: 0 • Поблагодарили: 119 раз
 Раздают: 0  |  0 KB/s  ]   Качают: 0  |  0 KB/s  ] 
 Полного источника не было 2 месяца 27 дней 
Сообщения
 Добавлено: 2012-11-25 17:19
DVD Release Group
Аватара пользователя
Стаж: 7 лет 1 месяц
Сообщений: 3549
Спасибок: 247086
Лайков: 1018
Темный рыцарь: Возрождение легенды

The Dark Knight Rises

«И разгорится пламя»


Изображение


Год выпуска: 2012
Страна: США, Великобритания / Warner Bros. Pictures, DC Entertainment, Legendary Pictures
Жанр: Фантастика, боевик, триллер, драма, криминал
Продолжительность: 02:37:48
Перевод: Профессиональный (полное дублирование)
Субтитры: Русские, английские, эстонские, латвийские, литовские, португальские
Режиссер: Кристофер Нолан
В ролях: Кристиан Бэйл, Том Харди, Энн Хэтэуэй, Джозеф Гордон-Левитт, Марион Котийяр, Гари Олдман, Морган Фриман, Майкл Кейн, Мэтью Модайн, Бен Мендельсон
Описание: Восемь лет назад Бэтмен растворился в ночи, превратившись из героя в беглеца. Приняв на себя вину за смерть прокурора Харви Дента, Темный рыцарь пожертвовал всем. Вместе с комиссаром Гордоном они решили, что так будет лучше для всех. Пока преступность была раздавлена антикриминальным актом Дента, ложь действовала.Но с появлением хитрой воровки с загадочным прошлым всё меняется. Тем не менее, еще опаснее становится появление террориста Бэйна, чье лицо закрыто маской. Он разворачивает в Готэме чудовищную деятельность, вынуждая Брюса Уэйна выйти из импровизированного изгнания. Однако даже надев свой костюм, Бэтмен может проиграть Бэйну.
Кинопоиск: 8.5 (71879)
IMDb: 8.8 (436458)
Дополнительно:
Исходник: DVD9 (7.0Гб) [лицензия, PAL 16:9].
Убрано: Ukrainian (Dolby AC3, 6 ch), English (Dolby AC3, 2 ch), заставки и предупреждение.
Сжатие фильма 38% сжатия (без учета ручного перераспределения битрейта, за счет большего сжатия конечных титров).
Работоспособность проверена на софтовом плеере Windows Media и бытовом LG.
Sample:
http://multi-up.com/794709
Качество: DVD5 (сжатый)
Формат: DVD Video
Видео кодек: MPEG2
Аудио кодек: AC3
Видео: 720х576 25fps 3104Kbps
Аудио:
Аудио Rus: 48kHz 6ch 384Kbps
Аудио Eng: 48kHz 6ch 384Kbps
"MediaInfo"
Формат : MPEG-PS
Размер файла : 1024 Мбайт
Продолжительность : 36 м.
Режим общего битрейта : Переменный
Общий поток : 3951 Кбит/сек

Видео
Идентификатор : 224 (0xE0)
Формат : MPEG Video
Версия формата : Version 2
Профиль формата : Main@Main
Параметр BVOP формата : Да
Параметр матрицы формата : Выборочная
Продолжительность : 36 м.
Вид битрейта : Переменный
Битрейт : 3104 Кбит/сек
Максимальный битрейт : 7972 Кбит/сек
Ширина : 720 пикселей
Высота : 576 пикселей
Соотношение сторон : 16:9
Частота кадров : 25,000 кадров/сек
Стандарт вещания : PAL
Цветовое пространство : YUV
Субдискретизация насыщенности : 4:2:0
Битовая глубина : 8 бит
Тип развёртки : Чересстрочная
Порядок развёртки : Верхнее поле первое
Метод сжатия : С потерями
Бит/(Пиксели*Кадры) : 0.299
Размер потока : 805 Мбайт (79%)

Аудио #1
Идентификатор : 189 (0xBD)-128 (0x80)
Формат : AC-3
Формат/Информация : Audio Coding 3
Расширение режима : CM (complete main)
Режим смешивания : DVD-Video
Продолжительность : 36 м.
Вид битрейта : Постоянный
Битрейт : 384 Кбит/сек
Каналы : 6 каналов
Расположение каналов : Front: L C R, Side: L R, LFE
Частота : 48,0 КГц
Битовая глубина : 16 бит
Метод сжатия : С потерями
Размер потока : 99,5 Мбайт (10%)

Аудио #2
Идентификатор : 189 (0xBD)-130 (0x82)
Формат : AC-3
Формат/Информация : Audio Coding 3
Расширение режима : CM (complete main)
Режим смешивания : DVD-Video
Продолжительность : 36 м.
Вид битрейта : Постоянный
Битрейт : 384 Кбит/сек
Каналы : 6 каналов
Расположение каналов : Front: L C R, Side: L R, LFE
Частота : 48,0 КГц
Битовая глубина : 16 бит
Метод сжатия : С потерями
Размер потока : 99,5 Мбайт (10%)

Текст #1
Идентификатор : 189 (0xBD)-32 (0x20)
Формат : RLE
Формат/Информация : Run-length encoding
Режим смешивания : DVD-Video

Текст #2
Идентификатор : 189 (0xBD)-33 (0x21)
Формат : RLE
Формат/Информация : Run-length encoding
Режим смешивания : DVD-Video

Текст #3
Идентификатор : 189 (0xBD)-34 (0x22)
Формат : RLE
Формат/Информация : Run-length encoding
Режим смешивания : DVD-Video

Текст #4
Идентификатор : 189 (0xBD)-35 (0x23)
Формат : RLE
Формат/Информация : Run-length encoding
Режим смешивания : DVD-Video

Текст #5
Идентификатор : 189 (0xBD)-36 (0x24)
Формат : RLE
Формат/Информация : Run-length encoding
Режим смешивания : DVD-Video

Текст #6
Идентификатор : 189 (0xBD)-37 (0x25)
Формат : RLE
Формат/Информация : Run-length encoding
Режим смешивания : DVD-Video

Меню
Свернуть

"Спектр звука"
Изображение
Свернуть

"Скриншоты"
Изображение
Изображение
Изображение
Изображение
Изображение
Изображение
Изображение
Изображение
Изображение
Изображение
Свернуть

Раздача группы:
Изображение
Не в сети
Профиль  
 Добавлено: 2012-11-25 17:46 (спустя 27 минут)
Модератор релиз-группы
Аватара пользователя
Стаж: 6 лет 5 месяцев
Возраст: 25
Сообщений: 622
Спасибок: 10257
Лайков: 7
Помогу :)
_________________
Изображение
Не в сети
Профиль  
 Добавлено: 2012-11-25 18:58 (спустя 1 час 11 минут)
Стаж: 5 лет 1 месяц
Сообщений: 2
вот скорости бы поболее... плиииииз
Не в сети
Профиль  
 Добавлено: 2012-11-27 18:52 (спустя 1 день 23 часа)
Аватара пользователя
Стаж: 7 лет 11 месяцев
Сообщений: 19
дайте скорости плиз)))
Не в сети
Профиль  
 Добавлено: 2012-12-03 23:17 (спустя 6 дней)
Аватара пользователя
Стаж: 7 лет 2 месяца
Возраст: 21
Сообщений: 12
а побольше разрешения экрана не было? а так норм :-ok-:
Не в сети
Профиль  
 Добавлено: 2012-12-03 23:22 (спустя 4 минуты)
DVD Release Group
Аватара пользователя
Стаж: 7 лет 1 месяц
Сообщений: 3549
Спасибок: 247086
Лайков: 1018
devil6577
Это DVD - больше разрешение не бывает.
Не в сети
Профиль  
 Добавлено: 2013-01-13 17:41 (спустя 1 месяц 9 дней)
Аватара пользователя
Стаж: 5 лет 10 месяцев
Сообщений: 171
Блин, язык не могу поменять когда на компе смотрю(
Не в сети
Профиль  
 Добавлено: 2013-02-14 19:46 (спустя 1 месяц 1 день)
Стаж: 3 года 9 месяцев
Сообщений: 1
а где скорость то!?
Не в сети
Профиль  
 Добавлено: 2013-02-16 16:20 (спустя 1 день 20 часов)
Аватара пользователя
Стаж: 5 лет 10 месяцев
Сообщений: 171
я бэтмен!
Не в сети
Профиль  
Начать новую темуОтветить на тему  [ Сообщений: 9 ] 
Вы не можете начинать темы
Вы не можете отвечать на сообщения
Вы не можете редактировать свои сообщения
Вы не можете удалять свои сообщения