Правила форума

  • В этом разделе создание новых тем Запрещено.
  • Для создания новых тем пользуйтесь Корневым разделом DVD и HD фильмы.
Начать новую темуОтветить на тему  [ Сообщений: 3 ] 
Торрент файл
Размер: 4.37 GB • Зарегистрирован: 4 года 10 месяцев • Статус: Проверено
Скачан: 61 раз • Желающих скачать: 0 • Поблагодарили: 21 раз
 Раздают: 0  |  0 KB/s  ]   Качают: 0  |  0 KB/s  ] 
 Полного источника не было 3 года 2 месяца 
Сообщения
 Добавлено: 2012-01-19 02:11
Руководитель релиз-группы
Аватара пользователя
Стаж: 7 лет 4 месяца
Возраст: 31
Сообщений: 3407
Спасибок: 46729
Лайков: 5
Изображение

То лето страсти
Un été brûlant


Год выпуска: 2011
Страна: Франция, Италия, Швейцария
Слоган: «Если любовь уходит, то нам остаётся...»
Жанр: драма
Продолжительность: 01:31:15
Перевод: Профессиональный (многоголосый, закадровый)
Режиссер: Филипп Гаррель
Сценарий: Марк Холоденко, Caroline Deruas-Garrel, Филипп Гаррель
Продюсер: Эдуард Вейл, Кончита Айрольди, Джорджо Мальюло
Оператор: Вилли Курант
Композитор: Джон Кейл
В ролях: Моника Беллуччи, Луи Гаррель, Селин Саллетт, Жером Робар, Vladislav Galard, Vincent Macaigne, Морис Гаррель
Описание: Художник страдает после того, как его жена, актриса, покинула его. Герой нашёл свой выход: самоубийство в автокатастрофе, и теперь, оглядываясь назад, вспоминает о бурных страстях, ярких и настоящих чувствах, которые сопутствовали роману с его бывшей.
Изображение
Релиз: Изображение Раздача группы: Изображение
Качество: DVD5 (сжатый)
Формат: DVD Video
Видео: MPEG2; PAL 16:9 (720x576)
Аудио: Dolby AC3, 6 ch, 448 Kbps Russian
Субтитры: русские
Дополнительная информация :
Исходник : DVD9 (5.71 Гб) [лицензия, PAL 16:9]
Убрано : часть допов, реклама, заставки, предупреждения, Russian (DTS, 6 ch), Francais (Dolby AC3, 6 ch)
Сжатие фильма : нет
использовались программы
    DVDRemakePro
    Photoshop
    MuxMan
    Работоспособность проверена на софтовом плеере Windows Media и бытовом LG
Свернуть
DVDInfo
    Title: To.leto.strasti_2011_DVD5.[R.G.Daredevil]
    Size: 4.37 Gb ( 4 581 500,00 KBytes ) - DVD-5
    Enabled regions: 1, 2, 3, 4, 5, 6

    VTS_01 :
    Play Length: 00:00:00
    Video: PAL 4:3 (720x576) VBR
    Subtitles:
    English
    English

    VTS_02 :
    Play Length: 00:00:00
    Video: PAL 16:9 (720x576) VBR, Auto Letterboxed
    Subtitles:
    Not specified

    VTS_03 :
    Play Length: 00:00:00
    Video: PAL 16:9 (720x576) VBR, Auto Letterboxed
    Audio:
    Not specified (Dolby AC3, 6 ch)
    Not specified (Dolby AC3, 6 ch)
    Not specified (Dolby AC3, 6 ch)
    Subtitles:
    Not specified

    VTS_04 :
    Play Length: 00:00:00
    Video: PAL 16:9 (720x576) VBR, Auto Letterboxed
    Audio:
    Not specified (Dolby AC3, 6 ch)
    Not specified (Dolby AC3, 6 ch)
    Not specified (Dolby AC3, 6 ch)
    Subtitles:
    Not specified

    VTS_05 :
    Play Length: 01:31:15
    Video: PAL 16:9 (720x576) VBR, Auto Letterboxed
    Audio:
    Russian (Dolby AC3, 6 ch)
    Subtitles:
    Russian

    VTS_06 :
    Play Length: 00:00:00
    Video: PAL 16:9 (720x576) VBR, Auto Letterboxed
    Audio:
    Not specified (Dolby AC3, 2 ch)
    Subtitles:
    Not specified

    VTS_07 :
    Play Length: 00:02:22
    Video: PAL 16:9 (720x576) VBR, Auto Letterboxed
    Audio:
    Not specified (Dolby AC3, 2 ch)
    Subtitles:
    Not specified

    VTS_08 :
    Play Length: 00:00:00
    Video: PAL 16:9 (720x576) VBR, Auto Letterboxed
    Audio:
    Not specified (Dolby AC3, 2 ch)
    Subtitles:
    Not specified

    VTS_09 :
    Play Length: 00:00:00
    Video: PAL 16:9 (720x576) VBR, Auto Letterboxed
    Audio:
    Not specified (Dolby AC3, 2 ch)
    Subtitles:
    Not specified

    VTS_10 :
    Play Length: 00:00:00
    Video: PAL 16:9 (720x576) VBR, Auto Letterboxed
    Audio:
    Not specified (Dolby AC3, 2 ch)
    Subtitles:
    Not specified

    VTS_11 :
    Play Length: 00:01:37
    Video: PAL 16:9 (720x576) VBR, Auto Letterboxed
    Audio:
    Not specified (Dolby AC3, 2 ch)
    Subtitles:
    Not specified

    VTS_12 :
    Play Length: 00:01:03
    Video: PAL 16:9 (720x576) VBR, Auto Letterboxed
    Audio:
    Not specified (Dolby AC3, 2 ch)
Свернуть
mediainfo
    Формат : MPEG-PS
    Размер файла : 1024 Мбайт
    Продолжительность : 21 м.
    Режим общего битрейта : Переменный
    Общий поток : 6576 Кбит/сек

    Видео
    Идентификатор : 224 (0xE0)
    Формат : MPEG Video
    Версия формата : Version 2
    Профиль формата : Main@Main
    Параметр BVOP формата : Да
    Параметр матрицы формата : По умолчанию
    Параметр GOP формата : M=3, N=12
    Продолжительность : 21 м.
    Вид битрейта : Переменный
    Битрейт : 5997 Кбит/сек
    Максимальный битрейт : 8000 Кбит/сек
    Ширина : 720 пикселей
    Высота : 576 пикселей
    Соотношение сторон : 16:9
    Частота кадров : 25,000 кадров/сек
    Стандарт вещания : PAL
    Цветовое пространство : YUV
    Субдискретизация насыщенности : 4:2:0
    Битовая глубина : 8 бит
    Тип развёртки : Прогрессивная
    Метод сжатия : С потерями
    Бит/(Пиксели*Кадры) : 0.578
    Размер потока : 934 Мбайт (91%)

    Аудио
    Идентификатор : 189 (0xBD)-128 (0x80)
    Формат : AC-3
    Формат/Информация : Audio Coding 3
    Расширение режима : CM (complete main)
    Режим смешивания : DVD-Video
    Продолжительность : 21 м.
    Вид битрейта : Постоянный
    Битрейт : 448 Кбит/сек
    Каналы : 6 каналов
    Расположение каналов : Front: L C R, Side: L R, LFE
    Частота : 48,0 КГц
    Битовая глубина : 16 бит
    Метод сжатия : С потерями
    Размер потока : 69,7 Мбайт (7%)

    Текст
    Идентификатор : 189 (0xBD)-32 (0x20)
    Формат : RLE
    Формат/Информация : Run-length encoding
    Режим смешивания : DVD-Video

    Меню
Свернуть
Скриншоты

меню
Изображение
Изображение
Изображение
Изображение
Изображение
Изображение
Свернуть
Изображение
Изображение
Изображение
Изображение
Свернуть
Не в сети
Профиль  
 Добавлено: 2012-01-24 18:32 (спустя 5 дней)
Аватара пользователя
Стаж: 7 лет 5 месяцев
Сообщений: 5
фильм-то интересный или как?
Не в сети
Профиль  
 Добавлено: 2012-01-24 21:56 (спустя 3 часа)
Стаж: 5 лет 6 месяцев
Сообщений: 5
спасибо )))
уже предвкушаю Монику... )))
Не в сети
Профиль  
Начать новую темуОтветить на тему  [ Сообщений: 3 ] 
Вы не можете начинать темы
Вы не можете отвечать на сообщения
Вы не можете редактировать свои сообщения
Вы не можете удалять свои сообщения