Правила форума

  • В этом разделе создание новых тем Запрещено.
  • Для создания новых тем пользуйтесь Корневым разделом DVD и HD фильмы.
Начать новую темуОтветить на тему  [ 1 сообщение ] 
Торрент файл
Размер: 4.37 GB • Зарегистрирован: 4 года 5 месяцев • Статус: Проверено
Скачан: 104 раза • Желающих скачать: 0 • Поблагодарили: 21 раз
 Раздают: 0  |  0 KB/s  ]   Качают: 0  |  0 KB/s  ] 
 Полного источника не было 1 год 8 месяцев 
Сообщения
 Добавлено: 2012-06-12 23:05
Руководитель релиз-группы
Аватара пользователя
Стаж: 7 лет 4 месяца
Возраст: 31
Сообщений: 3407
Спасибок: 46729
Лайков: 5
Изображение

Том Сойер
Tom Sawyer


Год выпуска: 2011
Страна: Германия
Жанр: приключения, семейный
Продолжительность: 01:50:16
Перевод: Профессиональный (полное дублирование)
Режиссер: Хермини Хунтгебурх
Сценарий: Peer Klehmet, Себастьян Велингс, Саша Аранго
Продюсер: Борис Шёнфельдер, Корнелиус Конрад, Бенжамин Херрманн
Оператор: Чау Нго
Композитор: Moritz Freise, Biber Gullatz, Андреас Шефер
В ролях: Луис Хофманн, Леон Зайдель, Хайке Макатч, Бенно Фюрманн, Йоахим Круль, Питер Лохмайер, Хиннерк Шонеманн, Сильвестр Грот, Томас Шмаузер, Аднан Марал...
Сборы в мире: $2 593 000
Описание: Кто не знает веселых забияк Тома Сойера и Гекльберри Финна, живущих на берегу реки Миссисипи? Верным друзьям всегда есть чем заняться: будь то игры в пиратов, кража яблок или варенья из чулана, рыбалка, а также подшучивания над взрослыми. Безудержная фантазия приводит Тома и Гека ночью на кладбище, где они становятся свидетелями таинственного преступления, с которого и начинаются невероятные приключения...
Изображение
Релиз: Изображение Раздача группы: Изображение
Качество: DVD5 (сжатый)
Формат: DVD Video
Видео: MPEG2; PAL 16:9 (720x576)
Аудио: Dolby AC3, 6 ch, 448 Kbps Russian
Субтитры: нет
Дополнительная информация :
Исходник : DVD9 (5.88 Гб) [лицензия, PAL 16:9]
Убрано : реклама, заставки, предупреждения, Russian (Dolby AC3, 2 ch)
Сжатие фильма : 26 % сжатия (без учета ручного перераспределения битрейта, за счет большего сжатия конечных титров)
использовались программы
    DVDRemakePro
    Photoshop
    MuxMan
    Rebuilder и CCE (Cinema Craft Encoder), 5 проходов
    Работоспособность проверена на софтовом плеере Windows Media и бытовом LG
Свернуть
DVDInfo
    Title: Tom.Soier_2011_DVD5.[R.G.Daredevil]
    Size: 4.37 Gb ( 4 579 550,00 KBytes ) - DVD-5
    Enabled regions: 1, 2, 3, 4, 5, 6, 7, 8

    VTS_01 :
    Play Length: 00:00:00
    Video: PAL 4:3 (720x576) VBR
    Audio:
    Russian (Dolby AC3, 2 ch)

    VTS_02 :
    Play Length: 00:00:00
    Video: PAL 16:9 (720x576) VBR, Auto Letterboxed
    Audio:
    Russian (Dolby AC3, 2 ch)

    VTS_03 :
    Play Length: 01:46:21
    Video: PAL 16:9 (720x576) VBR, Auto Letterboxed
    Audio:
    Russian (Dolby AC3, 2 ch)
Свернуть
mediainfo
    Формат : MPEG-PS
    Размер файла : 1024 Мбайт
    Продолжительность : 24 м.
    Режим общего битрейта : Переменный
    Общий поток : 5883 Кбит/сек

    Видео
    Идентификатор : 224 (0xE0)
    Формат : MPEG Video
    Версия формата : Version 2
    Профиль формата : Main@Main
    Параметр BVOP формата : Да
    Параметр матрицы формата : Выборочная
    Продолжительность : 24 м.
    Вид битрейта : Переменный
    Битрейт : 5318 Кбит/сек
    Максимальный битрейт : 9000 Кбит/сек
    Ширина : 720 пикселей
    Высота : 576 пикселей
    Соотношение сторон : 16:9
    Частота кадров : 25,000 кадров/сек
    Стандарт вещания : PAL
    Цветовое пространство : YUV
    Субдискретизация насыщенности : 4:2:0
    Битовая глубина : 8 бит
    Тип развёртки : Чересстрочная
    Порядок развёртки : Верхнее поле первое
    Метод сжатия : С потерями
    Бит/(Пиксели*Кадры) : 0.513
    Размер потока : 926 Мбайт (90%)

    Аудио
    Идентификатор : 189 (0xBD)-129 (0x81)
    Формат : AC-3
    Формат/Информация : Audio Coding 3
    Расширение режима : CM (complete main)
    Режим смешивания : DVD-Video
    Продолжительность : 24 м.
    Вид битрейта : Постоянный
    Битрейт : 448 Кбит/сек
    Каналы : 6 каналов
    Расположение каналов : Front: L C R, Side: L R, LFE
    Частота : 48,0 КГц
    Битовая глубина : 16 бит
    Метод сжатия : С потерями
    Размер потока : 78,0 Мбайт (8%)

    Меню
Свернуть
Знаете ли Вы, что...
  • Сцены в вымышленном американском городке Санкт-Петербурге снимались в Румынии, на берегу Дуная. В том же районе за восемь лет до этого проходили съёмки голливудской киноленты «Холодная гора», действие в которой тоже происходит в девятнадцатом веке в США.
  • Идея создания свежей немецкой экранизации «Приключений Тома Сойера» возникла у продюсера Бориса Шонфельдера после просмотра семейной киноленты «Руки прочь от Миссисипи» (2007).
  • Свою первую награду «Том Сойер» получил ещё до кинопрокатной премьеры. 22 сентября 2011 года в Лейпциге фильм был награждён наградой Гильдии кино. Вердикт жюри звучал так: «В глазах жюри в этой картине есть всё, что должен иметь хороший фильм для детей и юношества». Награду приняли исполнитель одной из главных ролей Леон Зайдель вместе с продюсерами Борисом Шонфельдером и Бенджамином Херманном.
  • В финансировании фильма участвовали немецкий Федеральный фонд кино, а также региональные фонды кино земель Северный Рейн-Вестфалия и Берлин-Бранденбург.
Свернуть
Скриншоты

меню
Изображение
Изображение
Свернуть
Изображение
Изображение
Изображение
Изображение
Изображение
Свернуть
Не в сети
Профиль  
Начать новую темуОтветить на тему  [ 1 сообщение ] 
Вы не можете начинать темы
Вы не можете отвечать на сообщения
Вы не можете редактировать свои сообщения
Вы не можете удалять свои сообщения