Правила форума

  • В этом разделе создание новых тем Запрещено.
  • Для создания новых тем пользуйтесь Корневым разделом DVD и HD фильмы.
Начать новую темуОтветить на тему  [ Сообщений: 6 ] 
Торрент файл
Размер: 4.38 GB • Зарегистрирован: 2 года 9 месяцев • Статус: Проверено
Скачан: 64 раза • Желающих скачать: 0 • Поблагодарили: 38 раз
 Раздают: 0  |  0 KB/s  ]   Качают: 0  |  0 KB/s  ] 
 Полного источника не было 10 часов 
Сообщения
 Добавлено: 2014-02-24 19:11
DVD Release Group
Аватара пользователя
Стаж: 7 лет 1 месяц
Сообщений: 3544
Спасибок: 246920
Лайков: 1018
Тор 2: Царство тьмы

Thor: The Dark World


Изображение


Год выпуска: 2013
Страна: США
Жанр: Фэнтези, боевик, приключения
Продолжительность: 01:51:57
Перевод: Профессиональный (полное дублирование)
Субтитры: Русские, английские
Режиссер: Алан Тейлор
В ролях: Крис Хемсворт, Натали Портман, Том Хиддлстон, Энтони Хопкинс, Джейми Александер, Рэй Стивенсон, Кэт Деннингс, Идрис Эльба, Стеллан Скарсгард, Рене Руссо, Кристофер Экклстон, Стэн Ли
Описание: Продолжение приключений одного из членов команды Мстителей, скандинавского бога Тора, которому на этот раз в одиночку предстоит защитить Землю и все девять миров от нашествия неизвестного врага.
Могучему Тору предстоит вновь сразиться за восстановление порядка в галактике, встретившись лицом к лицу с древней инопланетной расой, ведомой злодеем Малекитом, жаждущим установить в девяти мирах власть тьмы. Столкнувшись с врагом, более могущественным чем сам Один и всё воинство Асгарда, Тор должен собрать силы для решающей битвы. Его ждёт опасное путешествие и долгожданная встреча со своей земной возлюбленной Джейн Фостер. Сможет ли Тор рискнуть самым дорогим, чтобы не дать тьме воцариться на просторах вселенной?
Изображение
Sample:
http://multi-up.com/954032
Качество: DVD5
Формат: DVD Video
Видео кодек: MPEG2
Аудио кодек: AC3
Видео: 720x480@853x480 23.98fps 4136Kbps
Аудио:
Аудио Rus: 48kHz 6ch 448Kbps
Аудио Eng: 48kHz 6ch 448Kbps
"MediaInfo"
Формат : MPEG-PS
Размер файла : 1000 Мбайт
Продолжительность : 27 м.
Режим общего битрейта : Переменный
Общий поток : 5135 Кбит/сек

Видео
Идентификатор : 224 (0xE0)
Формат : MPEG Video
Версия формата : Version 2
Профиль формата : Main@Main
Параметр BVOP формата : Да
Параметр матрицы формата : Выборочная
Параметр GOP формата : Variable
Продолжительность : 27 м.
Вид битрейта : Переменный
Битрейт : 4136 Кбит/сек
Максимальный битрейт : 8900 Кбит/сек
Ширина : 720 пикселей
Высота : 480 пикселей
Соотношение сторон : 16:9
Частота кадров : 23,976 кадра/сек
Стандарт вещания : NTSC
Цветовое пространство : YUV
Субдискретизация насыщенности : 4:2:0
Битовая глубина : 8 бит
Тип развёртки : Прогрессивная
Порядок развёртки : 2:3 Pulldown
Метод сжатия : С потерями
Бит/(Пиксели*Кадры) : 0.499
Временной код первого кадра : 00:00:00:00
Оригинал временного кода : Group of pictures header
Размер потока : 806 Мбайт (81%)

Аудио #1
Идентификатор : 189 (0xBD)-128 (0x80)
Формат : AC-3
Формат/Информация : Audio Coding 3
Расширение режима : CM (complete main)
Параметр Endianness формата : Big
Режим смешивания : DVD-Video
Продолжительность : 27 м.
Вид битрейта : Постоянный
Битрейт : 448 Кбит/сек
Каналы : 6 каналов
Расположение каналов : Front: L C R, Side: L R, LFE
Частота : 48,0 КГц
Битовая глубина : 16 бит
Метод сжатия : С потерями
Размер потока : 87,2 Мбайт (9%)

Аудио #2
Идентификатор : 189 (0xBD)-129 (0x81)
Формат : AC-3
Формат/Информация : Audio Coding 3
Расширение режима : CM (complete main)
Параметр Endianness формата : Big
Режим смешивания : DVD-Video
Продолжительность : 27 м.
Вид битрейта : Постоянный
Битрейт : 448 Кбит/сек
Каналы : 6 каналов
Расположение каналов : Front: L C R, Side: L R, LFE
Частота : 48,0 КГц
Битовая глубина : 16 бит
Метод сжатия : С потерями
Размер потока : 87,2 Мбайт (9%)

Текст #1
Идентификатор : 189 (0xBD)-34 (0x22)
Формат : RLE
Формат/Информация : Run-length encoding
Режим смешивания : DVD-Video

Текст #2
Идентификатор : 189 (0xBD)-35 (0x23)
Формат : RLE
Формат/Информация : Run-length encoding
Режим смешивания : DVD-Video

Текст #3
Идентификатор : 189 (0xBD)-36 (0x24)
Формат : RLE
Формат/Информация : Run-length encoding
Режим смешивания : DVD-Video

Текст #4
Идентификатор : 189 (0xBD)-37 (0x25)
Формат : RLE
Формат/Информация : Run-length encoding
Режим смешивания : DVD-Video

Меню
Свернуть

"Скриншоты"
Изображение
Изображение
Изображение
Изображение
Изображение
Изображение
Изображение
Изображение
Свернуть


Последний раз редактировалось rastor 2014-02-25 01:56, всего редактировалось 1 раз.
Не в сети
Профиль  
 Добавлено: 2014-02-24 23:03 (спустя 3 часа)
DVD Release Group
Аватара пользователя
Стаж: 7 лет 9 месяцев
Сообщений: 364
Спасибок: 3086
Лайков: 10
rastor
"MediaInfo"
Частота кадров : 23,976 кадра/сек - NTSC 720x480

Видео: 720x480@853x480 25fps 4136Kbps :ne_znayu: NTSC по любасу не 25 (да и исходный блюрик 23,976).

Так, чисто технический интерес (4.38), а на DVD 5 - R она влезет, или это на погибель болванки DVD + R DL собрано.

Не вредности ради, а объективности для. :-P
Не в сети
Профиль  
 Добавлено: 2014-02-25 02:05 (спустя 3 часа)
DVD Release Group
Аватара пользователя
Стаж: 7 лет 1 месяц
Сообщений: 3544
Спасибок: 246920
Лайков: 1018
mihailo999
Частота кадров: 23,976 кадра/сек
А на счет 4.38 то я не первый:
http://nnportal.org/tracker/zarubejnoe- ... 95513.html
http://nnportal.org/tracker/zarubejnoe- ... 43954.html
http://nnportal.org/tracker/zarubejnoe- ... 42202.html
Не в сети
Профиль  
 Добавлено: 2014-02-26 20:13 (спустя 1 день 18 часов)
DVD Release Group
Аватара пользователя
Стаж: 7 лет 9 месяцев
Сообщений: 364
Спасибок: 3086
Лайков: 10
rastor

Верю, верю, да и не устрашит меня размер, если куда "нэлезе", подожму и запихну. Что ж у меня руки отсохли, что ли?! :hi_hi_hi:
Не в сети
Профиль  
 Добавлено: 2014-02-26 23:23 (спустя 3 часа)
DVD Release Group
Аватара пользователя
Стаж: 7 лет 9 месяцев
Сообщений: 364
Спасибок: 3086
Лайков: 10
rastor

Видео и звук нормуль, здесь нужно отключить анимацию эпизодов (тогда влезет на 4.36 DVD + R), неплохо бы добавить разделов, 8 на двухчасовой фильм как-то маловато будет. :ti_pa: Это "тиа" - что бы сделал я, если бы я это делал.
Сие что-то вроде рацпредложения, а не придирки к выполненной работе. :)
Не в сети
Профиль  
 Добавлено: 2014-02-28 22:14 (спустя 1 день 22 часа)
DVD Release Group
Аватара пользователя
Стаж: 7 лет 9 месяцев
Сообщений: 364
Спасибок: 3086
Лайков: 10
Пересобрал "Тор 2" в 4.36 Gb и переоформил.
Выглядит это примерно так:
Cкрытый текст
Изображение
Изображение
Изображение
Изображение
Свернуть
Cделано для уменьшения размера под запись DVD 5 ( DVD+R и DVD+RW) - 4.36 Gb. Видео взято без изменений, русская звуковая дорожка заменена на взятую из HQRip от kits лицензию. Удалил анимацию меню эпизодов и 2 потока субтитров (они не отображались в DVD инф., но зачем-то лежали на диске). В общем, почистил мусор для уменьшения веса. Менюшку нарисовал свою, вытащив некоторые картиночки из папки JAR блюрика.
Лежит здесь: :)
http://nnportal.org/tracker/hd-dvd-3d-f ... 26675.html

В дополнение пятерке, есть вариант собрать девятку с А. Гавриловым (DTS 768 kbps), дорожка есть на rutor.
Не в сети
Профиль  
Начать новую темуОтветить на тему  [ Сообщений: 6 ] 
Вы не можете начинать темы
Вы не можете отвечать на сообщения
Вы не можете редактировать свои сообщения
Вы не можете удалять свои сообщения